Featured TV Shows


12 Monkeys S02E02

Posted By: Tavaz
720p (HD) / WEB-DL IMDb
12 Monkeys S02E02

12 Monkeys S02E02
WEB-DL | MKV | 1280x720 | English | H264 @ 3956 kbps | AC-3 @ 384 kbps | 43 min 2 s | 1.33 GiB
Genre: Drama, Science Fiction


The provocative story of Cole, a time traveler from a decimated future in a high-stakes race against the clock. Utilizing a dangerous and untested method of time travel, he journeys from 2043 to the present day on a mission to locate and eradicate the source of a deadly plague that will all but annihilate the human race.

12.Monkeys.S02E02.720p.WEB-DL.DD5.1.H264-FGT.mkv (1.3 GB)



General
Unique ID : 181271377894974088029868730282503969039 (0x885F98F41C3806C89E1F80A0519A190F)
Complete name : ./12.Monkeys.S02E02.720p.WEB-DL.DD5.1.H264-FGT.mkv
Format : Matroska
Format version : Version 4 / Version 2
File size : 1.33 GiB
Duration : 43 min 2 s
Overall bit rate : 4 429 kb/s
Movie name : 12.Monkeys.S02E02.720p.WEB-DL.DD5.1.H264-FGT
Encoded date : UTC 2016-04-29 10:04:16
Writing application : mkvmerge v9.1.0 ('Little Earthquakes') 64bit
Writing library : libebml v1.3.3 + libmatroska v1.4.4
Cover : Yes
Attachments : cover_land.jpg / small_cover.jpg / small_cover_land.jpg / cover.jpg

Video
ID : 1
Format : AVC
Format/Info : Advanced Video Codec
Format profile : High@L3.1
Format settings : 2 Ref Frames
Format settings, CABAC : No
Format settings, RefFrames : 2 frames
Codec ID : V_MPEG4/ISO/AVC
Duration : 43 min 2 s
Bit rate : 3 957 kb/s
Width : 1 280 pixels
Height : 720 pixels
Display aspect ratio : 16:9
Frame rate mode : Constant
Frame rate : 23.976 (24000/1001) FPS
Color space : YUV
Chroma subsampling : 4:2:0
Bit depth : 8 bits
Scan type : Progressive
Bits/(Pixel*Frame) : 0.179
Stream size : 1.19 GiB (89%)
Title : 12.Monkeys.S02E02.720p.WEB-DL.DD5.1.H264-FGT
Language : English
Default : No
Forced : No
Color range : Limited
Color primaries : BT.709
Transfer characteristics : BT.709
Matrix coefficients : BT.709

Audio
ID : 2
Format : AC-3
Format/Info : Audio Coding 3
Format settings, Endianness : Big
Codec ID : A_AC3
Duration : 43 min 2 s
Bit rate mode : Constant
Bit rate : 384 kb/s
Channel(s) : 6 channels
Channel positions : Front: L C R, Side: L R, LFE
Sampling rate : 48.0 kHz
Frame rate : 31.250 FPS (1536 SPF)
Bit depth : 16 bits
Compression mode : Lossy
Stream size : 118 MiB (9%)
Title : 12.Monkeys.S02E02.720p.WEB-DL.DD5.1.H264-FGT
Language : English
Service kind : Complete Main
Default : No
Forced : No





12 Monkeys S02E02


12 Monkeys S02E02


12 Monkeys S02E02


12 Monkeys S02E02


12 Monkeys S02E02

All episodes