Featured TV Shows


12 Monkeys S02E04

Posted By: Tavaz
720p (HD) / HDTV IMDb
12 Monkeys S02E04

12 Monkeys S02E04
HDTV | MKV | 1280x718 | English | H264 @ 2109 kbps | AC-3 @ 192 kbps | 42 min 24 s | 712 MiB
Genre: Drama, Science Fiction


The provocative story of Cole, a time traveler from a decimated future in a high-stakes race against the clock. Utilizing a dangerous and untested method of time travel, he journeys from 2043 to the present day on a mission to locate and eradicate the source of a deadly plague that will all but annihilate the human race.

12.Monkeys.S02E04.720p.HDTV.x264-SVA.mkv (712.0 MB)



General
Unique ID : 191307771608459505221152981243238909252 (0x8FEC895E309840018A6365306A818544)
Complete name : ./12.Monkeys.S02E04.720p.HDTV.x264-SVA.mkv
Format : Matroska
Format version : Version 4 / Version 2
File size : 712 MiB
Duration : 42 min 24 s
Overall bit rate : 2 348 kb/s
Encoded date : UTC 2016-05-10 01:03:15
Writing application : FastLE v2.5.0 - AVS
Writing library : libx264 + libebml + libmatroska + libfastrar

Video
ID : 1
Format : AVC
Format/Info : Advanced Video Codec
Format profile : High@L4.1
Format settings : CABAC / 5 Ref Frames
Format settings, CABAC : Yes
Format settings, RefFrames : 5 frames
Codec ID : V_MPEG4/ISO/AVC
Duration : 42 min 24 s
Bit rate : 2 109 kb/s
Width : 1 280 pixels
Height : 718 pixels
Display aspect ratio : 16:9
Frame rate mode : Constant
Frame rate : 23.976 (24000/1001) FPS
Color space : YUV
Chroma subsampling : 4:2:0
Bit depth : 8 bits
Scan type : Progressive
Bits/(Pixel*Frame) : 0.096
Stream size : 640 MiB (90%)
Writing library : x264 core 148 r2665 a01e339
Encoding settings : cabac=1 / ref=5 / deblock=1:0:0 / analyse=0x3:0x113 / me=umh / subme=8 / psy=1 / psy_rd=1.00:0.00 / mixed_ref=1 / me_range=16 / chroma_me=1 / trellis=1 / 8x8dct=1 / cqm=0 / deadzone=21,11 / fast_pskip=1 / chroma_qp_offset=-2 / threads=22 / lookahead_threads=3 / sliced_threads=0 / nr=0 / decimate=1 / interlaced=0 / bluray_compat=0 / constrained_intra=0 / bframes=3 / b_pyramid=2 / b_adapt=2 / b_bias=0 / direct=3 / weightb=1 / open_gop=0 / weightp=2 / keyint=250 / keyint_min=23 / scenecut=40 / intra_refresh=0 / rc_lookahead=50 / rc=crf / mbtree=1 / crf=18.0 / qcomp=0.60 / qpmin=0 / qpmax=69 / qpstep=4 / ip_ratio=1.40 / aq=1:1.00
Default : Yes
Forced : No
Color range : Limited
Matrix coefficients : BT.709

Audio
ID : 2
Format : AC-3
Format/Info : Audio Coding 3
Format settings, Endianness : Big
Codec ID : A_AC3
Duration : 42 min 24 s
Bit rate mode : Constant
Bit rate : 192 kb/s
Channel(s) : 2 channels
Channel positions : Front: L R
Sampling rate : 48.0 kHz
Frame rate : 31.250 FPS (1536 SPF)
Bit depth : 16 bits
Compression mode : Lossy
Stream size : 58.2 MiB (8%)
Service kind : Complete Main
Default : Yes
Forced : No





12 Monkeys S02E04


12 Monkeys S02E04


12 Monkeys S02E04


12 Monkeys S02E04


12 Monkeys S02E04

All episodes