Featured TV Shows


12 Monkeys S03E01

Posted By: Tavaz
SD / BDRip IMDb
12 Monkeys S03E01

12 Monkeys S03E01
BDRip | MKV | 1024x576 | English | H264 @ 3721 kbps | AC-3 @ 448 kbps | 43 min 42 s | 1.30 GiB
Subtitles: English
Genre: Drama, Science Fiction

The provocative story of Cole, a time traveler from a decimated future in a high-stakes race against the clock. Utilizing a dangerous and untested method of time travel, he journeys from 2043 to the present day on a mission to locate and eradicate the source of a deadly plague that will all but annihilate the human race.

e0e410512c7747d58e7861758723d876.mkv (1.3 GB)



General
Unique ID : 152351239159540061987977674015853596960 (0x729DC806F5812A6957E4811E43C15120)
Complete name : ./e0e410512c7747d58e7861758723d876.mkv
Format : Matroska
Format version : Version 4 / Version 2
File size : 1.30 GiB
Duration : 43 min 42 s
Overall bit rate : 4 254 kb/s
Encoded date : UTC 2018-12-01 10:19:00 / UTC 2018-11-30T07:54:50Z
Writing application : mkvmerge v22.0.0 ('At The End Of The World') 64-bit
Writing library : libebml v1.3.5 + libmatroska v1.4.8 / Lavf57.7.2

Video
ID : 1
Format : AVC
Format/Info : Advanced Video Codec
Format profile : High@L4.1
Format settings : CABAC / 14 Ref Frames
Format settings, CABAC : Yes
Format settings, RefFrames : 14 frames
Codec ID : V_MPEG4/ISO/AVC
Duration : 43 min 42 s
Bit rate : 3 721 kb/s
Width : 1 024 pixels
Height : 576 pixels
Display aspect ratio : 16:9
Frame rate mode : Constant
Frame rate : 23.976 (24000/1001) FPS
Color space : YUV
Chroma subsampling : 4:2:0
Bit depth : 8 bits
Scan type : Progressive
Bits/(Pixel*Frame) : 0.263
Stream size : 1.14 GiB (87%)
Writing library : x264 core 155 r2901 7d0ff22
Encoding settings : cabac=1 / ref=14 / deblock=1:-3:-3 / analyse=0x3:0x133 / me=umh / subme=10 / psy=1 / psy_rd=0.95:0.00 / mixed_ref=1 / me_range=24 / chroma_me=1 / trellis=2 / 8x8dct=1 / cqm=0 / deadzone=21,11 / fast_pskip=0 / chroma_qp_offset=-2 / threads=12 / lookahead_threads=3 / sliced_threads=0 / nr=0 / decimate=1 / interlaced=0 / bluray_compat=0 / constrained_intra=0 / bframes=10 / b_pyramid=2 / b_adapt=2 / b_bias=0 / direct=3 / weightb=1 / open_gop=0 / weightp=2 / keyint=240 / keyint_min=24 / scenecut=40 / intra_refresh=0 / rc_lookahead=240 / rc=crf / mbtree=0 / crf=16.0 / qcomp=0.65 / qpmin=0 / qpmax=69 / qpstep=4 / vbv_maxrate=62500 / vbv_bufsize=78125 / crf_max=0.0 / nal_hrd=none / filler=0 / ip_ratio=1.40 / pb_ratio=1.30 / aq=3:1.00
Language : English
Default : Yes
Forced : No
Color range : Limited
Color primaries : BT.709
Transfer characteristics : BT.709
Matrix coefficients : BT.709
Statistics Tags Issue : mkvmerge v22.0.0 ('At The End Of The World') 64-bit 2018-12-01 10:19:00 / mkvmerge v22.0.0 ('At The End Of The World') 64-bit 2018-12-01 10:19:00 / UTC 2018-11-30T07:54:50Z
FromStats_BitRate : 3803812
FromStats_Duration : 00:43:42.620000000
FromStats_FrameCount : 62880
FromStats_StreamSize : 1246994451

Audio
ID : 2
Format : AC-3
Format/Info : Audio Coding 3
Format settings, Endianness : Big
Codec ID : A_AC3
Duration : 43 min 42 s
Bit rate mode : Constant
Bit rate : 448 kb/s
Channel(s) : 6 channels
Channel positions : Front: L C R, Side: L R, LFE
Sampling rate : 48.0 kHz
Frame rate : 31.250 FPS (1536 SPF)
Bit depth : 16 bits
Compression mode : Lossy
Stream size : 140 MiB (11%)
Language : English
Service kind : Complete Main
Default : Yes
Forced : No
Statistics Tags Issue : mkvmerge v22.0.0 ('At The End Of The World') 64-bit 2018-12-01 10:19:00 / mkvmerge v22.0.0 ('At The End Of The World') 64-bit 2018-12-01 10:19:00 / UTC 2018-11-30T07:54:50Z
FromStats_BitRate : 448000
FromStats_Duration : 00:43:42.528000000
FromStats_FrameCount : 81954
FromStats_StreamSize : 146861568

Text
ID : 3
Format : UTF-8
Codec ID : S_TEXT/UTF8
Codec ID/Info : UTF-8 Plain Text
Language : English
Default : No
Forced : No
Statistics Tags Issue : mkvmerge v22.0.0 ('At The End Of The World') 64-bit 2018-12-01 10:19:00 / mkvmerge v22.0.0 ('At The End Of The World') 64-bit 2018-12-01 10:19:00 / UTC 2018-11-30T07:54:50Z
FromStats_BitRate : 44
FromStats_Duration : 00:42:39.513000000
FromStats_FrameCount : 590
FromStats_StreamSize : 14132

Menu
00:00:00.000 : :Chapter 1
00:10:00.517 : :Chapter 2
00:20:01.742 : :Chapter 3
00:30:01.717 : :Chapter 4
00:40:02.025 : :Chapter 5





12 Monkeys S03E01


12 Monkeys S03E01


12 Monkeys S03E01


12 Monkeys S03E01


12 Monkeys S03E01

All episodes