Featured TV Shows


12 Monkeys S03E04

Posted By: Tavaz
1080p (FullHD) / WEB-DL IMDb
12 Monkeys S03E04

12 Monkeys S03E04
WEB-DL | MKV | 1920x1080 | English | H265 @ 6787 kbps | E-AC-3 @ 640 kbps | 43 min 4 s | 2.24 GiB
Subtitles: English
Genre: Drama, Science Fiction

The provocative story of Cole, a time traveler from a decimated future in a high-stakes race against the clock. Utilizing a dangerous and untested method of time travel, he journeys from 2043 to the present day on a mission to locate and eradicate the source of a deadly plague that will all but annihilate the human race.

12.Monkeys.S03E04.Brothers.1080p.AMZN.WEB-DL.DD5.1.H265-SiGMA.mkv (2.2 GB)



General
Unique ID : 59144633613317299629473802437477927349 (0x2C7ED79360F031C885EA20F3EE2A09B5)
Complete name : ./12.Monkeys.S03E04.Brothers.1080p.AMZN.WEB-DL.DD5.1.H265-SiGMA.mkv
Format : Matroska
Format version : Version 4 / Version 2
File size : 2.24 GiB
Duration : 43 min 4 s
Overall bit rate : 7 429 kb/s
Encoded date : UTC 2018-09-03 23:43:02
Writing application : mkvmerge v25.0.0 ('Prog Noir') 64-bit
Writing library : libebml v1.3.6 + libmatroska v1.4.9

Video
ID : 1
Format : HEVC
Format/Info : High Efficiency Video Coding
Format profile : Main@L4@Main
Codec ID : V_MPEGH/ISO/HEVC
Duration : 43 min 4 s
Bit rate : 6 787 kb/s
Width : 1 920 pixels
Height : 1 080 pixels
Display aspect ratio : 16:9
Frame rate mode : Constant
Frame rate : 23.976 (24000/1001) FPS
Standard : NTSC
Color space : YUV
Chroma subsampling : 4:2:0
Bit depth : 8 bits
Bits/(Pixel*Frame) : 0.137
Stream size : 2.04 GiB (91%)
Default : Yes
Forced : No
Color range : Limited
Color primaries : BT.709
Transfer characteristics : BT.709
Matrix coefficients : BT.709

Audio
ID : 2
Format : E-AC-3
Format/Info : Enhanced Audio Coding 3
Format settings, Endianness : Big
Codec ID : A_EAC3
Duration : 43 min 4 s
Bit rate mode : Constant
Bit rate : 640 kb/s
Channel(s) : 6 channels
Channel positions : Front: L C R, Side: L R, LFE
Sampling rate : 48.0 kHz
Frame rate : 187.500 FPS (256 SPF)
Compression mode : Lossy
Stream size : 197 MiB (9%)
Language : English
Service kind : Complete Main
Default : Yes
Forced : No

Text
ID : 3
Format : UTF-8
Codec ID : S_TEXT/UTF8
Codec ID/Info : UTF-8 Plain Text
Duration : 42 min 33 s
Bit rate : 47 b/s
Count of elements : 606
Stream size : 14.8 KiB (0%)
Title : English
Language : English
Default : No
Forced : No





12 Monkeys S03E04


12 Monkeys S03E04


12 Monkeys S03E04


12 Monkeys S03E04


12 Monkeys S03E04

All episodes