Featured TV Shows


12 Monkeys S03E09

Posted By: Tavaz
1080p (FullHD) / WEB-DL IMDb
12 Monkeys S03E09

12 Monkeys S03E09
WEB-DL | MKV | 1920x1080 | English | H265 @ 6020 kbps | E-AC-3 @ 640 kbps | 44 min 25 s | 2.07 GiB
Subtitles: English
Genre: Drama, Science Fiction


The provocative story of Cole, a time traveler from a decimated future in a high-stakes race against the clock. Utilizing a dangerous and untested method of time travel, he journeys from 2043 to the present day on a mission to locate and eradicate the source of a deadly plague that will all but annihilate the human race.

12.Monkeys.S03E09.Thief.1080p.AMZN.WEB-DL.DD5.1.H265-SiGMA.mkv (2.1 GB)



General
Unique ID : 51637032236390853857347509547018627332 (0x26D8EE3FE306391924269D54D0FE2904)
Complete name : ./12.Monkeys.S03E09.Thief.1080p.AMZN.WEB-DL.DD5.1.H265-SiGMA.mkv
Format : Matroska
Format version : Version 4 / Version 2
File size : 2.07 GiB
Duration : 44 min 25 s
Overall bit rate : 6 662 kb/s
Encoded date : UTC 2018-09-04 00:01:53
Writing application : mkvmerge v25.0.0 ('Prog Noir') 64-bit
Writing library : libebml v1.3.6 + libmatroska v1.4.9

Video
ID : 1
Format : HEVC
Format/Info : High Efficiency Video Coding
Format profile : Main@L4@Main
Codec ID : V_MPEGH/ISO/HEVC
Duration : 44 min 25 s
Bit rate : 6 020 kb/s
Width : 1 920 pixels
Height : 1 080 pixels
Display aspect ratio : 16:9
Frame rate mode : Constant
Frame rate : 23.976 (24000/1001) FPS
Standard : NTSC
Color space : YUV
Chroma subsampling : 4:2:0
Bit depth : 8 bits
Bits/(Pixel*Frame) : 0.121
Stream size : 1.87 GiB (90%)
Default : Yes
Forced : No
Color range : Limited
Color primaries : BT.709
Transfer characteristics : BT.709
Matrix coefficients : BT.709

Audio
ID : 2
Format : E-AC-3
Format/Info : Enhanced Audio Coding 3
Format settings, Endianness : Big
Codec ID : A_EAC3
Duration : 44 min 25 s
Bit rate mode : Constant
Bit rate : 640 kb/s
Channel(s) : 6 channels
Channel positions : Front: L C R, Side: L R, LFE
Sampling rate : 48.0 kHz
Frame rate : 187.500 FPS (256 SPF)
Compression mode : Lossy
Stream size : 203 MiB (10%)
Language : English
Service kind : Complete Main
Default : Yes
Forced : No

Text
ID : 3
Format : UTF-8
Codec ID : S_TEXT/UTF8
Codec ID/Info : UTF-8 Plain Text
Duration : 44 min 13 s
Bit rate : 59 b/s
Count of elements : 818
Stream size : 19.3 KiB (0%)
Title : English
Language : English
Default : No
Forced : No





12 Monkeys S03E09


12 Monkeys S03E09


12 Monkeys S03E09


12 Monkeys S03E09


12 Monkeys S03E09

All episodes