Featured TV Shows


12 Monkeys S04E01

Posted By: Tavaz
1080p (FullHD) / WEB-DL IMDb
12 Monkeys S04E01

12 Monkeys S04E01
WEB-DL | MKV | 1920x1080 | English | H264 @ 10410 kbps | E-AC-3 @ 640 kbps | 43 min 5 s | 3.33 GiB
Subtitles: English
Genre: Drama, Science Fiction

The provocative story of Cole, a time traveler from a decimated future in a high-stakes race against the clock. Utilizing a dangerous and untested method of time travel, he journeys from 2043 to the present day on a mission to locate and eradicate the source of a deadly plague that will all but annihilate the human race.

bf1959ce905143e1927d43666bb0954a.mkv (3.3 GB)



General
Unique ID : 185590423698615760572169799510817822062 (0x8B9F6A5A3A54EDCB09F633326AC4D56E)
Complete name : ./bf1959ce905143e1927d43666bb0954a.mkv
Format : Matroska
Format version : Version 4 / Version 2
File size : 3.33 GiB
Duration : 43 min 5 s
Overall bit rate : 11.1 Mb/s
Encoded date : UTC 2018-06-16 07:07:22
Writing application : mkvmerge v21.0.0 ('Tardigrades Will Inherit The Earth') 64-bit
Writing library : libebml v1.3.5 + libmatroska v1.4.8

Video
ID : 1
Format : AVC
Format/Info : Advanced Video Codec
Format profile : High@L4
Format settings : CABAC / 4 Ref Frames
Format settings, CABAC : Yes
Format settings, RefFrames : 4 frames
Codec ID : V_MPEG4/ISO/AVC
Duration : 43 min 5 s
Bit rate : 10.4 Mb/s
Width : 1 920 pixels
Height : 1 080 pixels
Display aspect ratio : 16:9
Frame rate mode : Constant
Frame rate : 23.976 (24000/1001) FPS
Color space : YUV
Chroma subsampling : 4:2:0
Bit depth : 8 bits
Scan type : Progressive
Bits/(Pixel*Frame) : 0.209
Stream size : 3.13 GiB (94%)
Default : Yes
Forced : No
Color range : Limited
Color primaries : BT.709
Transfer characteristics : BT.709
Matrix coefficients : BT.709

Audio
ID : 2
Format : E-AC-3
Format/Info : Enhanced Audio Coding 3
Format settings, Endianness : Big
Codec ID : A_EAC3
Duration : 43 min 5 s
Bit rate mode : Constant
Bit rate : 640 kb/s
Channel(s) : 6 channels
Channel positions : Front: L C R, Side: L R, LFE
Sampling rate : 48.0 kHz
Frame rate : 187.500 FPS (256 SPF)
Compression mode : Lossy
Stream size : 197 MiB (6%)
Language : English
Service kind : Complete Main
Default : Yes
Forced : No

Text
ID : 3
Format : UTF-8
Codec ID : S_TEXT/UTF8
Codec ID/Info : UTF-8 Plain Text
Duration : 42 min 46 s
Bit rate : 49 b/s
Count of elements : 771
Stream size : 15.5 KiB (0%)
Title : SDH
Language : English
Default : No
Forced : No





12 Monkeys S04E01


12 Monkeys S04E01


12 Monkeys S04E01


12 Monkeys S04E01


12 Monkeys S04E01

All episodes