Featured TV Shows


12 Monkeys S04E07

Posted By: Tavaz
1080p (FullHD) / WEB-DL IMDb
12 Monkeys S04E07

12 Monkeys S04E07
WEB-DL | MKV | 1920x1080 | English | H264 @ 4074 kbps | E-AC-3 @ 640 kbps | 43 min 9 s | 1.42 GiB
Subtitles: English
Genre: Drama, Science Fiction

The provocative story of Cole, a time traveler from a decimated future in a high-stakes race against the clock. Utilizing a dangerous and untested method of time travel, he journeys from 2043 to the present day on a mission to locate and eradicate the source of a deadly plague that will all but annihilate the human race.

2c5d8f6b14044ac28404bcedc7fb5b83.mkv (1.4 GB)



General
Unique ID : 279761712725943453184112363993238420513 (0xD278255F279A103A449ABD3536853C21)
Complete name : ./2c5d8f6b14044ac28404bcedc7fb5b83.mkv
Format : Matroska
Format version : Version 4 / Version 2
File size : 1.42 GiB
Duration : 43 min 9 s
Overall bit rate : 4 717 kb/s
Encoded date : UTC 2018-06-30 07:10:10
Writing application : mkvmerge v21.0.0 ('Tardigrades Will Inherit The Earth') 64-bit
Writing library : libebml v1.3.5 + libmatroska v1.4.8

Video
ID : 1
Format : AVC
Format/Info : Advanced Video Codec
Format profile : High@L4
Format settings : CABAC / 4 Ref Frames
Format settings, CABAC : Yes
Format settings, RefFrames : 4 frames
Codec ID : V_MPEG4/ISO/AVC
Duration : 43 min 9 s
Bit rate : 4 075 kb/s
Width : 1 920 pixels
Height : 1 080 pixels
Display aspect ratio : 16:9
Frame rate mode : Constant
Frame rate : 23.976 (24000/1001) FPS
Color space : YUV
Chroma subsampling : 4:2:0
Bit depth : 8 bits
Scan type : Progressive
Bits/(Pixel*Frame) : 0.082
Stream size : 1.23 GiB (86%)
Default : Yes
Forced : No
Color range : Limited
Color primaries : BT.709
Transfer characteristics : BT.709
Matrix coefficients : BT.709

Audio
ID : 2
Format : E-AC-3
Format/Info : Enhanced Audio Coding 3
Format settings, Endianness : Big
Codec ID : A_EAC3
Duration : 43 min 9 s
Bit rate mode : Constant
Bit rate : 640 kb/s
Channel(s) : 6 channels
Channel positions : Front: L C R, Side: L R, LFE
Sampling rate : 48.0 kHz
Frame rate : 187.500 FPS (256 SPF)
Compression mode : Lossy
Stream size : 198 MiB (14%)
Language : English
Service kind : Complete Main
Default : Yes
Forced : No

Text
ID : 3
Format : UTF-8
Codec ID : S_TEXT/UTF8
Codec ID/Info : UTF-8 Plain Text
Duration : 42 min 39 s
Bit rate : 63 b/s
Count of elements : 878
Stream size : 19.9 KiB (0%)
Title : SDH
Language : English
Default : No
Forced : No





12 Monkeys S04E07


12 Monkeys S04E07


12 Monkeys S04E07


12 Monkeys S04E07


12 Monkeys S04E07

All episodes