Featured TV Shows


12 Monkeys S04E08

Posted By: Tavaz
1080p (FullHD) / BDRip IMDb
12 Monkeys S04E08

12 Monkeys S04E08
BluRay Remux | MKV | 1920x1080 | English | H264 @ 21640 kbps | DTS | 43 min 9 s | 7.73 GiB
Genre: Drama, Science Fiction

The provocative story of Cole, a time traveler from a decimated future in a high-stakes race against the clock. Utilizing a dangerous and untested method of time travel, he journeys from 2043 to the present day on a mission to locate and eradicate the source of a deadly plague that will all but annihilate the human race.

5eda213086c345f4ab89977617f2e103.mkv (7.7 GB)



General
Unique ID : 79555253776045322153269465299652785742 (0x3BD9C8D82448BCCF4B2B6D08061D364E)
Complete name : ./5eda213086c345f4ab89977617f2e103.mkv
Format : Matroska
Format version : Version 4 / Version 2
File size : 7.73 GiB
Duration : 43 min 9 s
Overall bit rate mode : Variable
Overall bit rate : 25.6 Mb/s
Encoded date : UTC 2018-09-19 10:33:33
Writing application : mkvmerge v26.0.0 ('In The Game') 64-bit
Writing library : libebml v1.3.6 + libmatroska v1.4.9

Video
ID : 1
Format : AVC
Format/Info : Advanced Video Codec
Format profile : High@L4.1
Format settings : CABAC / 2 Ref Frames
Format settings, CABAC : Yes
Format settings, RefFrames : 2 frames
Format settings, GOP : M=1, N=5
Codec ID : V_MPEG4/ISO/AVC
Duration : 43 min 9 s
Bit rate mode : Variable
Bit rate : 21.6 Mb/s
Maximum bit rate : 38.2 Mb/s
Width : 1 920 pixels
Height : 1 080 pixels
Display aspect ratio : 16:9
Frame rate mode : Constant
Frame rate : 23.976 (24000/1001) FPS
Color space : YUV
Chroma subsampling : 4:2:0
Bit depth : 8 bits
Scan type : Progressive
Bits/(Pixel*Frame) : 0.435
Stream size : 6.52 GiB (84%)
Title : MPEG-4 AVC Video / 21642 kbps / 1080p / 23.976 fps / 16:9 / High Profile 4.1
Language : English
Default : Yes
Forced : No

Audio
ID : 2
Format : DTS
Format/Info : Digital Theater Systems
Format profile : MA / Core
Mode : 16
Format settings, Endianness : Big
Codec ID : A_DTS
Duration : 43 min 8 s
Bit rate mode : Variable / Constant
Bit rate : 4 004 kb/s / 1 509 kb/s
Channel(s) : 6 channels
Channel positions : Front: L C R, Side: L R, LFE
Sampling rate : 48.0 kHz
Frame rate : 93.750 FPS (512 SPF)
Bit depth : 24 bits
Compression mode : Lossless / Lossy
Stream size : 1.21 GiB (16%)
Title : DTS-HD Master Audio / 5.1 / 48 kHz / 4003 kbps / 24-bit
Language : English
Default : Yes
Forced : No

Menu
00:00:00.000 : en:Chapter 1
00:10:00.600 : en:Chapter 2
00:20:01.200 : en:Chapter 3
00:30:01.800 : en:Chapter 4
00:40:02.400 : en:Chapter 5
00:43:07.627 : en:Chapter 6





12 Monkeys S04E08


12 Monkeys S04E08


12 Monkeys S04E08


12 Monkeys S04E08


12 Monkeys S04E08

All episodes