Index
# A B C D E F G H I J K L M N O P Q R S T U V W Y Z
Tags
Language
Tags

Featured TV Shows


Back to Life S02E04

Posted By:
720p (HD) / WEB-DL IMDb
Back to Life S02E04

Back to Life S02E04
WEB-DL | MKV | 1280x720 | English | H264 @ 4937 kbps | AAC @ 128 kbps | 25 min 30 s | 925 MiB
Subtitles: English
Genre: Comedy, Drama


When Miri Matteson returns home after eighteen years, can she integrate back into her old life? With a terrible event from her past hanging over her, it won’t be easy.

979b471a1ffa4230b49f52c49dab5a72.mkv (924.6 MB)



General
Unique ID : 322473027529638516713160795563625462175 (0xF29A0BC68093BEB96F8A7549E95EB99F)
Complete name : ./979b471a1ffa4230b49f52c49dab5a72.mkv
Format : Matroska
Format version : Version 4 / Version 2
File size : 925 MiB
Duration : 25 min 30 s
Overall bit rate : 5 069 kb/s
Encoded date : UTC 2021-08-31 17:03:07
Writing application : mkvmerge v60.0.0 ('Are We Copies?') 64-bit
Writing library : libebml v1.4.2 + libmatroska v1.6.4

Video
ID : 1
Format : AVC
Format/Info : Advanced Video Codec
Format profile : High@L3.2
Format settings : CABAC / 4 Ref Frames
Format settings, CABAC : Yes
Format settings, RefFrames : 4 frames
Codec ID : V_MPEG4/ISO/AVC
Duration : 25 min 30 s
Bit rate : 4 938 kb/s
Width : 1 280 pixels
Height : 720 pixels
Display aspect ratio : 16:9
Frame rate mode : Constant
Frame rate : 50.000 FPS
Color space : YUV
Chroma subsampling : 4:2:0
Bit depth : 8 bits
Scan type : Progressive
Bits/(Pixel*Frame) : 0.107
Stream size : 901 MiB (97%)
Default : Yes
Forced : No
Color range : Limited
Color primaries : BT.709
Transfer characteristics : BT.709
Matrix coefficients : BT.709

Audio
ID : 2
Format : AAC
Format/Info : Advanced Audio Codec
Format profile : LC
Codec ID : A_AAC-2
Duration : 25 min 30 s
Bit rate : 128 kb/s
Channel(s) : 2 channels
Channel positions : Front: L R
Sampling rate : 48.0 kHz
Frame rate : 46.875 FPS (1024 SPF)
Compression mode : Lossy
Stream size : 23.3 MiB (3%)
Language : English
Default : Yes
Forced : No

Text
ID : 3
Format : UTF-8
Codec ID : S_TEXT/UTF8
Codec ID/Info : UTF-8 Plain Text
Duration : 24 min 40 s
Bit rate : 86 b/s
Count of elements : 390
Stream size : 15.7 KiB (0%)
Title : SDH
Language : English
Default : No
Forced : No





Back to Life S02E04


Back to Life S02E04


Back to Life S02E04


Back to Life S02E04


Back to Life S02E04

All episodes