Featured TV Shows


Blindspot S03E20

Posted By: Tavaz
SD / HDTV IMDb
Blindspot S03E20

Blindspot S03E20
HDTV | MOV | 720x404 | Spanish | H264 @ 793 kbps | AAC @ 132 kbps | 40 min 11 s | 268 MiB
Genre: Action, Crime, Drama

A vast international plot explodes when a beautiful Jane Doe is discovered naked in Times Square, completely covered in mysterious, intricate tattoos with no memory of who she is or how she got there. But there's one tattoo that is impossible to miss: the name of FBI agent Kurt Weller, emblazoned across her back. "Jane," Agent Weller and the rest of the FBI quickly realize that each mark on her body is a crime to solve, leading them closer to the truth about her identity and the mysteries to be revealed.

blindspot.s03e20.spanish.hdtv.x264-fcc.sample.mp4 (6.5 MB)
blindspot.s03e20.spanish.hdtv.x264-fcc.mp4 (267.6 MB)



General
Complete name : ./blindspot.s03e20.spanish.hdtv.x264-fcc.mp4
Format : MPEG-4
Format profile : Base Media
Codec ID : isom (isom/avc1)
File size : 268 MiB
Duration : 40 min 11 s
Overall bit rate mode : Variable
Overall bit rate : 931 kb/s
Encoded date : UTC 2018-05-23 22:44:41
Tagged date : UTC 2018-05-23 22:44:41

Video
ID : 1
Format : AVC
Format/Info : Advanced Video Codec
Format profile : High@L3.1
Format settings : CABAC / 5 Ref Frames
Format settings, CABAC : Yes
Format settings, RefFrames : 5 frames
Codec ID : avc1
Codec ID/Info : Advanced Video Coding
Duration : 40 min 11 s
Bit rate : 793 kb/s
Maximum bit rate : 4 633 kb/s
Width : 720 pixels
Height : 404 pixels
Display aspect ratio : 16:9
Frame rate mode : Constant
Frame rate : 25.000 FPS
Color space : YUV
Chroma subsampling : 4:2:0
Bit depth : 8 bits
Scan type : Progressive
Bits/(Pixel*Frame) : 0.109
Stream size : 228 MiB (85%)
Title : FCC 4ever
Writing library : x264 core 155 r2901 7d0ff22
Encoding settings : opencl=1 / cabac=1 / ref=5 / deblock=1:-1:-1 / analyse=0x3:0x113 / me=hex / subme=8 / psy=1 / psy_rd=1.00:0.00 / mixed_ref=1 / me_range=16 / chroma_me=1 / trellis=2 / 8x8dct=1 / cqm=0 / deadzone=21,11 / fast_pskip=1 / chroma_qp_offset=-2 / threads=12 / lookahead_threads=2 / sliced_threads=0 / nr=0 / decimate=1 / interlaced=0 / bluray_compat=0 / constrained_intra=0 / bframes=3 / b_pyramid=2 / b_adapt=1 / b_bias=0 / direct=3 / weightb=1 / open_gop=0 / weightp=2 / keyint=250 / keyint_min=25 / scenecut=40 / intra_refresh=0 / rc_lookahead=50 / rc=crf / mbtree=1 / crf=19.0 / qcomp=0.60 / qpmin=0 / qpmax=69 / qpstep=4 / ip_ratio=1.40 / aq=1:1.00
Encoded date : UTC 2018-05-23 22:44:41
Tagged date : UTC 2018-05-23 22:44:44
Color range : Limited
Matrix coefficients : BT.709

Audio
ID : 2
Format : AAC
Format/Info : Advanced Audio Codec
Format profile : LC
Codec ID : mp4a-40-2
Duration : 40 min 10 s
Bit rate mode : Variable
Bit rate : 132 kb/s
Maximum bit rate : 170 kb/s
Channel(s) : 2 channels
Channel positions : Front: L R
Sampling rate : 48.0 kHz
Frame rate : 46.875 FPS (1024 SPF)
Compression mode : Lossy
Stream size : 38.4 MiB (14%)
Title : FCC 4ever
Language : Spanish
Encoded date : UTC 2018-05-23 22:44:43
Tagged date : UTC 2018-05-23 22:44:44





Blindspot S03E20


Blindspot S03E20


Blindspot S03E20


Blindspot S03E20


Blindspot S03E20

All episodes