Featured TV Shows


Blindspot S03E20

Posted By: Tavaz
720p (HD) / HDTV IMDb
Blindspot S03E20

Blindspot S03E20
HDTV | MKV | 1280x720 | Spanish | H264 @ 2586 kbps | AC-3 @ 192 kbps | 40 min 11 s | 799 MiB
Genre: Action, Crime, Drama

A vast international plot explodes when a beautiful Jane Doe is discovered naked in Times Square, completely covered in mysterious, intricate tattoos with no memory of who she is or how she got there. But there's one tattoo that is impossible to miss: the name of FBI agent Kurt Weller, emblazoned across her back. "Jane," Agent Weller and the rest of the FBI quickly realize that each mark on her body is a crime to solve, leading them closer to the truth about her identity and the mysteries to be revealed.

blindspot.s03e20.spanish.720p.hdtv.x264-fcc.mkv (799.2 MB)
blindspot.s03e20.spanish.720p.hdtv.x264-fcc.sample.mkv (18.7 MB)



General
Unique ID : 259491244350711084382948117389521558099 (0xC338321EA59893B18ADED0A13A859A53)
Complete name : ./blindspot.s03e20.spanish.720p.hdtv.x264-fcc.mkv
Format : Matroska
Format version : Version 4 / Version 2
File size : 799 MiB
Duration : 40 min 11 s
Overall bit rate : 2 781 kb/s
Movie name : blindspot.s03e20.720p.fcc
Encoded date : UTC 2018-05-23 22:30:08
Writing application : mkvmerge v19.0.0 ('Brave Captain') 64-bit
Writing library : libebml v1.3.5 + libmatroska v1.4.8

Video
ID : 1
Format : AVC
Format/Info : Advanced Video Codec
Format profile : High@L4.1
Format settings : CABAC / 5 Ref Frames
Format settings, CABAC : Yes
Format settings, RefFrames : 5 frames
Codec ID : V_MPEG4/ISO/AVC
Duration : 40 min 11 s
Bit rate : 2 587 kb/s
Width : 1 280 pixels
Height : 720 pixels
Display aspect ratio : 16:9
Frame rate mode : Constant
Frame rate : 25.000 FPS
Color space : YUV
Chroma subsampling : 4:2:0
Bit depth : 8 bits
Scan type : Progressive
Bits/(Pixel*Frame) : 0.112
Stream size : 743 MiB (93%)
Title : FCC 4ever
Writing library : x264 core 155 r2901 7d0ff22
Encoding settings : opencl=1 / cabac=1 / ref=5 / deblock=1:-3:-3 / analyse=0x3:0x113 / me=hex / subme=8 / psy=1 / psy_rd=1.00:0.00 / mixed_ref=1 / me_range=16 / chroma_me=1 / trellis=2 / 8x8dct=1 / cqm=0 / deadzone=21,11 / fast_pskip=1 / chroma_qp_offset=-2 / threads=12 / lookahead_threads=2 / sliced_threads=0 / nr=0 / decimate=1 / interlaced=0 / bluray_compat=0 / constrained_intra=0 / bframes=3 / b_pyramid=2 / b_adapt=1 / b_bias=0 / direct=3 / weightb=1 / open_gop=0 / weightp=2 / keyint=250 / keyint_min=25 / scenecut=40 / intra_refresh=0 / rc_lookahead=50 / rc=crf / mbtree=1 / crf=18.0 / qcomp=0.60 / qpmin=0 / qpmax=69 / qpstep=4 / ip_ratio=1.40 / aq=1:1.00
Language : Spanish
Default : Yes
Forced : No

Audio
ID : 2
Format : AC-3
Format/Info : Audio Coding 3
Format settings, Endianness : Big
Codec ID : A_AC3
Duration : 40 min 10 s
Bit rate mode : Constant
Bit rate : 192 kb/s
Channel(s) : 2 channels
Channel positions : Front: L R
Sampling rate : 48.0 kHz
Frame rate : 31.250 FPS (1536 SPF)
Bit depth : 16 bits
Compression mode : Lossy
Delay relative to video : 16 ms
Stream size : 55.2 MiB (7%)
Title : FCC 4ever
Language : Spanish
Service kind : Complete Main
Default : Yes
Forced : No





Blindspot S03E20


Blindspot S03E20


Blindspot S03E20


Blindspot S03E20


Blindspot S03E20

All episodes