Featured TV Shows


Blindspot S03E22

Posted By: Tavaz
1080p (FullHD) / HDTV IMDb
Blindspot S03E22

Blindspot S03E22
HDTV | MKV | 1920x1080 | Spanish | H264 @ 6817 kbps | AC-3 @ 192 kbps | 39 min 45 s | 1.95 GiB
Genre: Acción, Crimen, Drama

Blindspot parte de una atractiva mujer, sin recuerdos de su pasado, que aparece desnuda en Times Square cubriendo su cuerpo solamente de tatuajes intrincados. Su descubrimiento pone en marcha un gran y complejo misterio que llama inmediatamente la atención del FBI, que comienzan a seguir la hoja de ruta en su cuerpo para revelar una conspiración más amplia de delito y, de esa manera, descubrir la verdad sobre su identidad.

blindspot.s03e22.spanish.1080p.hdtv.x264-fcc.sample.mkv (58.6 MB)
blindspot.s03e22.spanish.1080p.hdtv.x264-fcc.mkv (1.9 GB)



General
Unique ID : 181394784087658158936939959157686934347 (0x88775D593E8145F2AAAD296DC7AE1B4B)
Complete name : ./blindspot.s03e22.spanish.1080p.hdtv.x264-fcc.mkv
Format : Matroska
Format version : Version 4 / Version 2
File size : 1.95 GiB
Duration : 39 min 45 s
Overall bit rate : 7 012 kb/s
Movie name : blindspot.s03e22.1080p.fcc
Encoded date : UTC 2018-06-06 09:31:51
Writing application : mkvmerge v19.0.0 ('Brave Captain') 64-bit
Writing library : libebml v1.3.5 + libmatroska v1.4.8

Video
ID : 1
Format : AVC
Format/Info : Advanced Video Codec
Format profile : High@L4.1
Format settings : CABAC / 4 Ref Frames
Format settings, CABAC : Yes
Format settings, RefFrames : 4 frames
Codec ID : V_MPEG4/ISO/AVC
Duration : 39 min 45 s
Bit rate : 6 818 kb/s
Width : 1 920 pixels
Height : 1 080 pixels
Display aspect ratio : 16:9
Frame rate mode : Constant
Frame rate : 25.000 FPS
Color space : YUV
Chroma subsampling : 4:2:0
Bit depth : 8 bits
Scan type : Progressive
Bits/(Pixel*Frame) : 0.132
Stream size : 1.89 GiB (97%)
Title : FCC 4ever
Writing library : x264 core 155 r2901 7d0ff22
Encoding settings : opencl=1 / cabac=1 / ref=4 / deblock=1:-3:-3 / analyse=0x3:0x113 / me=hex / subme=7 / psy=1 / psy_rd=1.00:0.00 / mixed_ref=1 / me_range=16 / chroma_me=1 / trellis=1 / 8x8dct=1 / cqm=0 / deadzone=21,11 / fast_pskip=1 / chroma_qp_offset=-2 / threads=18 / lookahead_threads=3 / sliced_threads=0 / nr=0 / decimate=1 / interlaced=0 / bluray_compat=0 / constrained_intra=0 / bframes=3 / b_pyramid=2 / b_adapt=1 / b_bias=0 / direct=1 / weightb=1 / open_gop=0 / weightp=2 / keyint=250 / keyint_min=25 / scenecut=40 / intra_refresh=0 / rc_lookahead=40 / rc=crf / mbtree=1 / crf=17.0 / qcomp=0.60 / qpmin=0 / qpmax=69 / qpstep=4 / ip_ratio=1.40 / aq=1:1.00
Language : Spanish
Default : Yes
Forced : No

Audio
ID : 2
Format : AC-3
Format/Info : Audio Coding 3
Format settings, Endianness : Big
Codec ID : A_AC3
Duration : 39 min 45 s
Bit rate mode : Constant
Bit rate : 192 kb/s
Channel(s) : 2 channels
Channel positions : Front: L R
Sampling rate : 48.0 kHz
Frame rate : 31.250 FPS (1536 SPF)
Bit depth : 16 bits
Compression mode : Lossy
Stream size : 54.6 MiB (3%)
Title : FCC 4ever
Language : Spanish
Service kind : Complete Main
Default : Yes
Forced : No





Blindspot S03E22


Blindspot S03E22


Blindspot S03E22


Blindspot S03E22


Blindspot S03E22

All episodes