Champions S01E09

Posted By: Tavaz
1080p (FullHD) / WEBRip IMDb
Champions S01E09

Champions S01E09
WEBRip | MKV | 1920x1080 | Spanish | H264 @ 4012 kbps | AC-3 @ 384 kbps | 22 min 21 s | 718 MiB
Subtitles: German, Italian, English, French, Spanish
Genre: Comedy

Vince, a charismatic gym owner with no ambition lives with his younger brother Michael, a gorgeous idiot. Their simple life of women and working out is put on hold when the teenage son of Vince is dropped off on their doorstep by Priya, one of his old high school flings.

Champions.S01E09.SPANiSH.1080p.WEB.x264-FERiCE.mkv (717.5 MB)
champions.s01e09.spanish.1080p.web.x264-ferice.sample.mkv (27.1 MB)



General
Unique ID : 111633617890872703261801049633205691839 (0x53FBDA4DCCC2B6481D09B856ED02A5BF)
Complete name : ./Champions.S01E09.SPANiSH.1080p.WEB.x264-FERiCE.mkv
Format : Matroska
Format version : Version 4 / Version 2
File size : 718 MiB
Duration : 22 min 21 s
Overall bit rate mode : Variable
Overall bit rate : 4 486 kb/s
Encoded date : UTC 2018-06-12 13:11:40 / UTC 2018-05-31 01:15:15
Writing application : mkvmerge v20.0.0 ('I Am The Sun') 64-bit
Writing library : libebml v1.3.5 + libmatroska v1.4.8 / Lavf58.0.0

Video
ID : 1
Format : AVC
Format/Info : Advanced Video Codec
Format profile : Main@L4
Format settings : CABAC / 3 Ref Frames
Format settings, CABAC : Yes
Format settings, RefFrames : 3 frames
Codec ID : V_MPEG4/ISO/AVC
Duration : 22 min 21 s
Bit rate mode : Variable
Bit rate : 4 013 kb/s
Nominal bit rate : 4 220 kb/s
Maximum bit rate : 6 330 kb/s
Width : 1 920 pixels
Height : 1 080 pixels
Display aspect ratio : 16:9
Frame rate mode : Constant
Frame rate : 23.976 (24000/1001) FPS
Color space : YUV
Chroma subsampling : 4:2:0
Bit depth : 8 bits
Scan type : Progressive
Bits/(Pixel*Frame) : 0.081
Stream size : 642 MiB (89%)
Title : Champions.S01E09.SPANiSH.1080p.WEB.x264-FERiCE
Writing library : x264 core 148 r2715 7e75228
Encoding settings : cabac=1 / ref=3 / deblock=1:0:0 / analyse=0x1:0x111 / me=umh / subme=10 / psy=1 / psy_rd=1.00:0.00 / mixed_ref=1 / me_range=24 / chroma_me=1 / trellis=2 / 8x8dct=0 / cqm=0 / deadzone=21,11 / fast_pskip=1 / chroma_qp_offset=-2 / threads=8 / lookahead_threads=1 / sliced_threads=0 / nr=0 / decimate=1 / interlaced=0 / bluray_compat=0 / stitchable=1 / constrained_intra=0 / bframes=2 / b_pyramid=0 / b_adapt=2 / b_bias=0 / direct=3 / weightb=1 / open_gop=0 / weightp=2 / keyint=48 / keyint_min=25 / scenecut=0 / intra_refresh=0 / rc_lookahead=48 / rc=2pass / mbtree=1 / bitrate=4220 / ratetol=1.0 / qcomp=0.50 / qpmin=6 / qpmax=51 / qpstep=4 / cplxblur=20.0 / qblur=0.5 / vbv_maxrate=6330 / vbv_bufsize=8440 / nal_hrd=vbr / filler=0 / ip_ratio=1.40 / aq=1:1.00
Default : Yes
Forced : No
Statistics Tags Issue : mkvmerge v20.0.0 ('I Am The Sun') 64-bit 2018-06-12 13:11:40 / mkvmerge v20.0.0 ('I Am The Sun') 64-bit 2018-06-12 13:11:40 / UTC 2018-05-31 01:15:15
FromStats_BitRate : 4099420
FromStats_Duration : 00:22:21.632000000
FromStats_FrameCount : 32167
FromStats_StreamSize : 687489197

Audio
ID : 2
Format : AC-3
Format/Info : Audio Coding 3
Format settings, Endianness : Big
Codec ID : A_AC3
Duration : 22 min 21 s
Bit rate mode : Constant
Bit rate : 384 kb/s
Channel(s) : 6 channels
Channel positions : Front: L C R, Side: L R, LFE
Sampling rate : 48.0 kHz
Frame rate : 31.250 FPS (1536 SPF)
Bit depth : 16 bits
Compression mode : Lossy
Stream size : 61.4 MiB (9%)
Language : Spanish
Service kind : Complete Main
Default : Yes
Forced : No
Encoded date : UTC 2018-05-31 01:15:15
Statistics Tags Issue : mkvmerge v20.0.0 ('I Am The Sun') 64-bit 2018-06-12 13:11:40 / mkvmerge v20.0.0 ('I Am The Sun') 64-bit 2018-06-12 13:11:40 / UTC 2018-05-31 01:15:15
FromStats_BitRate : 384000
FromStats_Duration : 00:22:21.728000000
FromStats_FrameCount : 41929
FromStats_StreamSize : 64402944

Text #1
ID : 3
Format : UTF-8
Codec ID : S_TEXT/UTF8
Codec ID/Info : UTF-8 Plain Text
Title : Forced
Language : Spanish
Default : Yes
Forced : Yes
Statistics Tags Issue : mkvmerge v20.0.0 ('I Am The Sun') 64-bit 2018-06-12 13:11:40 / mkvmerge v20.0.0 ('I Am The Sun') 64-bit 2018-06-12 13:11:40 / UTC 2018-05-31 01:15:15
FromStats_BitRate : 2
FromStats_Duration : 00:21:24.242000000
FromStats_FrameCount : 10
FromStats_StreamSize : 337

Text #2
ID : 4
Format : UTF-8
Codec ID : S_TEXT/UTF8
Codec ID/Info : UTF-8 Plain Text
Title : English
Language : English
Default : No
Forced : No
Statistics Tags Issue : mkvmerge v20.0.0 ('I Am The Sun') 64-bit 2018-06-12 13:11:40 / mkvmerge v20.0.0 ('I Am The Sun') 64-bit 2018-06-12 13:11:40 / UTC 2018-05-31 01:15:15
FromStats_BitRate : 120
FromStats_Duration : 00:21:20.738000000
FromStats_FrameCount : 483
FromStats_StreamSize : 19358

Text #3
ID : 5
Format : UTF-8
Codec ID : S_TEXT/UTF8
Codec ID/Info : UTF-8 Plain Text
Title : European Spanish
Language : Spanish
Default : No
Forced : No
Statistics Tags Issue : mkvmerge v20.0.0 ('I Am The Sun') 64-bit 2018-06-12 13:11:40 / mkvmerge v20.0.0 ('I Am The Sun') 64-bit 2018-06-12 13:11:40 / UTC 2018-05-31 01:15:15
FromStats_BitRate : 96
FromStats_Duration : 00:21:24.242000000
FromStats_FrameCount : 456
FromStats_StreamSize : 15533

Text #4
ID : 6
Format : UTF-8
Codec ID : S_TEXT/UTF8
Codec ID/Info : UTF-8 Plain Text
Title : French
Language : French
Default : No
Forced : No
Statistics Tags Issue : mkvmerge v20.0.0 ('I Am The Sun') 64-bit 2018-06-12 13:11:40 / mkvmerge v20.0.0 ('I Am The Sun') 64-bit 2018-06-12 13:11:40 / UTC 2018-05-31 01:15:15
FromStats_BitRate : 98
FromStats_Duration : 00:21:24.242000000
FromStats_FrameCount : 449
FromStats_StreamSize : 15865

Text #5
ID : 7
Format : UTF-8
Codec ID : S_TEXT/UTF8
Codec ID/Info : UTF-8 Plain Text
Title : German
Language : German
Default : No
Forced : No
Statistics Tags Issue : mkvmerge v20.0.0 ('I Am The Sun') 64-bit 2018-06-12 13:11:40 / mkvmerge v20.0.0 ('I Am The Sun') 64-bit 2018-06-12 13:11:40 / UTC 2018-05-31 01:15:15
FromStats_BitRate : 99
FromStats_Duration : 00:21:24.242000000
FromStats_FrameCount : 448
FromStats_StreamSize : 16027

Text #6
ID : 8
Format : UTF-8
Codec ID : S_TEXT/UTF8
Codec ID/Info : UTF-8 Plain Text
Title : Italian
Language : Italian
Default : No
Forced : No
Statistics Tags Issue : mkvmerge v20.0.0 ('I Am The Sun') 64-bit 2018-06-12 13:11:40 / mkvmerge v20.0.0 ('I Am The Sun') 64-bit 2018-06-12 13:11:40 / UTC 2018-05-31 01:15:15
FromStats_BitRate : 105
FromStats_Duration : 00:21:24.242000000
FromStats_FrameCount : 457
FromStats_StreamSize : 16982





Champions S01E09


Champions S01E09


Champions S01E09


Champions S01E09


Champions S01E09

All episodes