Champions S01E10

Posted By: Tavaz
720p (HD) / WEBRip IMDb
Champions S01E10

Champions S01E10
WEBRip | MKV | 1280x720 | Spanish | H264 @ 2149 kbps | AC-3 @ 384 kbps | 22 min 19 s | 413 MiB
Subtitles: German, Italian, English, French, Spanish
Genre: Comedy

Vince, a charismatic gym owner with no ambition lives with his younger brother Michael, a gorgeous idiot. Their simple life of women and working out is put on hold when the teenage son of Vince is dropped off on their doorstep by Priya, one of his old high school flings.

Champions.S01E10.SPANiSH.720p.WEB.x264-FERiCE.mkv (412.9 MB)
champions.s01e10.spanish.720p.web.x264-ferice.sample.mkv (16.6 MB)



General
Unique ID : 20839485437796925836317294997778968678 (0xFAD89F58C7EC2DF75056B6C7E4FB066)
Complete name : ./Champions.S01E10.SPANiSH.720p.WEB.x264-FERiCE.mkv
Format : Matroska
Format version : Version 4 / Version 2
File size : 413 MiB
Duration : 22 min 19 s
Overall bit rate mode : Variable
Overall bit rate : 2 585 kb/s
Encoded date : UTC 2018-06-12 13:12:16 / UTC 2018-05-14 20:49:59
Writing application : mkvmerge v20.0.0 ('I Am The Sun') 64-bit
Writing library : libebml v1.3.5 + libmatroska v1.4.8 / Lavf58.0.0

Video
ID : 1
Format : AVC
Format/Info : Advanced Video Codec
Format profile : Main@L3.1
Format settings : CABAC / 3 Ref Frames
Format settings, CABAC : Yes
Format settings, RefFrames : 3 frames
Codec ID : V_MPEG4/ISO/AVC
Duration : 22 min 19 s
Bit rate mode : Variable
Bit rate : 2 150 kb/s
Nominal bit rate : 2 260 kb/s
Maximum bit rate : 3 390 kb/s
Width : 1 280 pixels
Height : 720 pixels
Display aspect ratio : 16:9
Frame rate mode : Constant
Frame rate : 23.976 (24000/1001) FPS
Color space : YUV
Chroma subsampling : 4:2:0
Bit depth : 8 bits
Scan type : Progressive
Bits/(Pixel*Frame) : 0.097
Stream size : 343 MiB (83%)
Title : Champions.S01E10.SPANiSH.720p.WEB.x264-FERiCE
Writing library : x264 core 148 r2715 7e75228
Encoding settings : cabac=1 / ref=3 / deblock=1:0:0 / analyse=0x1:0x111 / me=umh / subme=10 / psy=1 / psy_rd=1.00:0.00 / mixed_ref=1 / me_range=24 / chroma_me=1 / trellis=2 / 8x8dct=0 / cqm=0 / deadzone=21,11 / fast_pskip=1 / chroma_qp_offset=-2 / threads=8 / lookahead_threads=1 / sliced_threads=0 / nr=0 / decimate=1 / interlaced=0 / bluray_compat=0 / stitchable=1 / constrained_intra=0 / bframes=2 / b_pyramid=0 / b_adapt=2 / b_bias=0 / direct=3 / weightb=1 / open_gop=0 / weightp=2 / keyint=48 / keyint_min=25 / scenecut=0 / intra_refresh=0 / rc_lookahead=48 / rc=2pass / mbtree=1 / bitrate=2260 / ratetol=1.0 / qcomp=0.50 / qpmin=6 / qpmax=51 / qpstep=4 / cplxblur=20.0 / qblur=0.5 / vbv_maxrate=3390 / vbv_bufsize=4520 / nal_hrd=vbr / filler=0 / ip_ratio=1.40 / aq=1:1.00
Default : Yes
Forced : No
Statistics Tags Issue : mkvmerge v20.0.0 ('I Am The Sun') 64-bit 2018-06-12 13:12:16 / mkvmerge v20.0.0 ('I Am The Sun') 64-bit 2018-06-12 13:12:16 / UTC 2018-05-14 20:49:59
FromStats_BitRate : 2198768
FromStats_Duration : 00:22:19.630000000
FromStats_FrameCount : 32119
FromStats_StreamSize : 368192026

Audio
ID : 2
Format : AC-3
Format/Info : Audio Coding 3
Format settings, Endianness : Big
Codec ID : A_AC3
Duration : 22 min 19 s
Bit rate mode : Constant
Bit rate : 384 kb/s
Channel(s) : 6 channels
Channel positions : Front: L C R, Side: L R, LFE
Sampling rate : 48.0 kHz
Frame rate : 31.250 FPS (1536 SPF)
Bit depth : 16 bits
Compression mode : Lossy
Stream size : 61.3 MiB (15%)
Language : Spanish
Service kind : Complete Main
Default : Yes
Forced : No
Encoded date : UTC 2018-05-14 20:49:59
Statistics Tags Issue : mkvmerge v20.0.0 ('I Am The Sun') 64-bit 2018-06-12 13:12:16 / mkvmerge v20.0.0 ('I Am The Sun') 64-bit 2018-06-12 13:12:16 / UTC 2018-05-14 20:49:59
FromStats_BitRate : 384000
FromStats_Duration : 00:22:19.808000000
FromStats_FrameCount : 41869
FromStats_StreamSize : 64310784

Text #1
ID : 3
Format : UTF-8
Codec ID : S_TEXT/UTF8
Codec ID/Info : UTF-8 Plain Text
Title : Forced
Language : Spanish
Default : Yes
Forced : Yes
Statistics Tags Issue : mkvmerge v20.0.0 ('I Am The Sun') 64-bit 2018-06-12 13:12:16 / mkvmerge v20.0.0 ('I Am The Sun') 64-bit 2018-06-12 13:12:16 / UTC 2018-05-14 20:49:59
FromStats_BitRate : 0
FromStats_Duration : 00:21:21.656000000
FromStats_FrameCount : 4
FromStats_StreamSize : 131

Text #2
ID : 4
Format : UTF-8
Codec ID : S_TEXT/UTF8
Codec ID/Info : UTF-8 Plain Text
Title : English
Language : English
Default : No
Forced : No
Statistics Tags Issue : mkvmerge v20.0.0 ('I Am The Sun') 64-bit 2018-06-12 13:12:16 / mkvmerge v20.0.0 ('I Am The Sun') 64-bit 2018-06-12 13:12:16 / UTC 2018-05-14 20:49:59
FromStats_BitRate : 125
FromStats_Duration : 00:21:21.989000000
FromStats_FrameCount : 494
FromStats_StreamSize : 20121

Text #3
ID : 5
Format : UTF-8
Codec ID : S_TEXT/UTF8
Codec ID/Info : UTF-8 Plain Text
Title : European Spanish
Language : Spanish
Default : No
Forced : No
Statistics Tags Issue : mkvmerge v20.0.0 ('I Am The Sun') 64-bit 2018-06-12 13:12:16 / mkvmerge v20.0.0 ('I Am The Sun') 64-bit 2018-06-12 13:12:16 / UTC 2018-05-14 20:49:59
FromStats_BitRate : 96
FromStats_Duration : 00:21:24.993000000
FromStats_FrameCount : 463
FromStats_StreamSize : 15439

Text #4
ID : 6
Format : UTF-8
Codec ID : S_TEXT/UTF8
Codec ID/Info : UTF-8 Plain Text
Title : French
Language : French
Default : No
Forced : No
Statistics Tags Issue : mkvmerge v20.0.0 ('I Am The Sun') 64-bit 2018-06-12 13:12:16 / mkvmerge v20.0.0 ('I Am The Sun') 64-bit 2018-06-12 13:12:16 / UTC 2018-05-14 20:49:59
FromStats_BitRate : 100
FromStats_Duration : 00:21:24.993000000
FromStats_FrameCount : 449
FromStats_StreamSize : 16163

Text #5
ID : 7
Format : UTF-8
Codec ID : S_TEXT/UTF8
Codec ID/Info : UTF-8 Plain Text
Title : German
Language : German
Default : No
Forced : No
Statistics Tags Issue : mkvmerge v20.0.0 ('I Am The Sun') 64-bit 2018-06-12 13:12:16 / mkvmerge v20.0.0 ('I Am The Sun') 64-bit 2018-06-12 13:12:16 / UTC 2018-05-14 20:49:59
FromStats_BitRate : 99
FromStats_Duration : 00:21:24.993000000
FromStats_FrameCount : 452
FromStats_StreamSize : 16021

Text #6
ID : 8
Format : UTF-8
Codec ID : S_TEXT/UTF8
Codec ID/Info : UTF-8 Plain Text
Title : Italian
Language : Italian
Default : No
Forced : No
Statistics Tags Issue : mkvmerge v20.0.0 ('I Am The Sun') 64-bit 2018-06-12 13:12:16 / mkvmerge v20.0.0 ('I Am The Sun') 64-bit 2018-06-12 13:12:16 / UTC 2018-05-14 20:49:59
FromStats_BitRate : 106
FromStats_Duration : 00:21:24.993000000
FromStats_FrameCount : 462
FromStats_StreamSize : 17129





Champions S01E10


Champions S01E10


Champions S01E10


Champions S01E10


Champions S01E10

All episodes