Champions S01E08

Posted By: Tavaz
SD / WEBRip IMDb
Champions S01E08

Champions S01E08
WEBRip | MKV | 640x480 | Spanish | H264 @ 1281 kbps | E-AC-3 @ 128 kbps | 22 min 23 s | 230 MiB
Subtitles: German, Italian, English, French, Spanish
Genre: Comedy

Vince, a charismatic gym owner with no ambition lives with his younger brother Michael, a gorgeous idiot. Their simple life of women and working out is put on hold when the teenage son of Vince is dropped off on their doorstep by Priya, one of his old high school flings.

Champions.S01E08.SPANiSH.WEB.x264-FERiCE.mkv (230.4 MB)
champions.s01e08.spanish.web.x264-ferice.sample.mkv (10.1 MB)



General
Unique ID : 303530890888055394110888205250200613458 (0xE459EC55936BDE02C945370B80103252)
Complete name : ./Champions.S01E08.SPANiSH.WEB.x264-FERiCE.mkv
Format : Matroska
Format version : Version 4 / Version 2
File size : 230 MiB
Duration : 22 min 23 s
Overall bit rate mode : Variable
Overall bit rate : 1 438 kb/s
Encoded date : UTC 2018-06-12 13:10:11 / UTC 2018-05-11 19:19:06
Writing application : mkvmerge v20.0.0 ('I Am The Sun') 64-bit
Writing library : libebml v1.3.5 + libmatroska v1.4.8 / Lavf58.0.0

Video
ID : 1
Format : AVC
Format/Info : Advanced Video Codec
Format profile : Baseline@L3
Format settings : 3 Ref Frames
Format settings, CABAC : No
Format settings, RefFrames : 3 frames
Format settings, GOP : M=1, N=48
Codec ID : V_MPEG4/ISO/AVC
Duration : 22 min 23 s
Bit rate mode : Variable
Bit rate : 1 282 kb/s
Nominal bit rate : 1 350 kb/s
Maximum bit rate : 2 025 kb/s
Width : 640 pixels
Height : 480 pixels
Display aspect ratio : 16:9
Frame rate mode : Constant
Frame rate : 23.976 (24000/1001) FPS
Color space : YUV
Chroma subsampling : 4:2:0
Bit depth : 8 bits
Scan type : Progressive
Bits/(Pixel*Frame) : 0.174
Stream size : 205 MiB (89%)
Title : Champions.S01E08.SPANiSH.WEB.x264-FERiCE
Writing library : x264 core 148 r2715 7e75228
Encoding settings : cabac=0 / ref=3 / deblock=1:0:0 / analyse=0x1:0x111 / me=umh / subme=9 / psy=1 / psy_rd=1.00:0.00 / mixed_ref=1 / me_range=24 / chroma_me=1 / trellis=1 / 8x8dct=0 / cqm=0 / deadzone=21,11 / fast_pskip=1 / chroma_qp_offset=-2 / threads=8 / lookahead_threads=1 / sliced_threads=0 / nr=0 / decimate=1 / interlaced=0 / bluray_compat=0 / stitchable=1 / constrained_intra=0 / bframes=0 / weightp=0 / keyint=48 / keyint_min=25 / scenecut=0 / intra_refresh=0 / rc_lookahead=48 / rc=2pass / mbtree=1 / bitrate=1350 / ratetol=1.0 / qcomp=0.50 / qpmin=8 / qpmax=51 / qpstep=4 / cplxblur=20.0 / qblur=0.5 / vbv_maxrate=2025 / vbv_bufsize=2700 / nal_hrd=vbr / filler=0 / ip_ratio=1.40 / aq=1:1.00
Default : Yes
Forced : No
Statistics Tags Issue : mkvmerge v20.0.0 ('I Am The Sun') 64-bit 2018-06-12 13:10:11 / mkvmerge v20.0.0 ('I Am The Sun') 64-bit 2018-06-12 13:10:11 / UTC 2018-05-11 19:19:06
FromStats_BitRate : 1307681
FromStats_Duration : 00:22:23.634000000
FromStats_FrameCount : 32215
FromStats_StreamSize : 219630642

Audio
ID : 2
Format : E-AC-3
Format/Info : Enhanced Audio Coding 3
Format settings, Endianness : Big
Codec ID : A_EAC3
Duration : 22 min 23 s
Bit rate mode : Constant
Bit rate : 128 kb/s
Channel(s) : 2 channels
Channel positions : Front: L R
Sampling rate : 48.0 kHz
Frame rate : 187.500 FPS (256 SPF)
Compression mode : Lossy
Stream size : 20.5 MiB (9%)
Language : Spanish
Service kind : Complete Main
Default : Yes
Forced : No
Encoded date : UTC 2018-05-11 19:19:06
Statistics Tags Issue : mkvmerge v20.0.0 ('I Am The Sun') 64-bit 2018-06-12 13:10:11 / mkvmerge v20.0.0 ('I Am The Sun') 64-bit 2018-06-12 13:10:11 / UTC 2018-05-11 19:19:06
FromStats_BitRate : 128000
FromStats_Duration : 00:22:23.776000000
FromStats_FrameCount : 41993
FromStats_StreamSize : 21500416

Text #1
ID : 3
Format : UTF-8
Codec ID : S_TEXT/UTF8
Codec ID/Info : UTF-8 Plain Text
Title : Forced
Language : Spanish
Default : Yes
Forced : Yes
Statistics Tags Issue : mkvmerge v20.0.0 ('I Am The Sun') 64-bit 2018-06-12 13:10:11 / mkvmerge v20.0.0 ('I Am The Sun') 64-bit 2018-06-12 13:10:11 / UTC 2018-05-11 19:19:06
FromStats_BitRate : 1
FromStats_Duration : 00:21:23.408000000
FromStats_FrameCount : 9
FromStats_StreamSize : 235

Text #2
ID : 4
Format : UTF-8
Codec ID : S_TEXT/UTF8
Codec ID/Info : UTF-8 Plain Text
Title : English
Language : English
Default : No
Forced : No
Statistics Tags Issue : mkvmerge v20.0.0 ('I Am The Sun') 64-bit 2018-06-12 13:10:11 / mkvmerge v20.0.0 ('I Am The Sun') 64-bit 2018-06-12 13:10:11 / UTC 2018-05-11 19:19:06
FromStats_BitRate : 116
FromStats_Duration : 00:21:16.900000000
FromStats_FrameCount : 487
FromStats_StreamSize : 18546

Text #3
ID : 5
Format : UTF-8
Codec ID : S_TEXT/UTF8
Codec ID/Info : UTF-8 Plain Text
Title : European Spanish
Language : Spanish
Default : No
Forced : No
Statistics Tags Issue : mkvmerge v20.0.0 ('I Am The Sun') 64-bit 2018-06-12 13:10:11 / mkvmerge v20.0.0 ('I Am The Sun') 64-bit 2018-06-12 13:10:11 / UTC 2018-05-11 19:19:06
FromStats_BitRate : 100
FromStats_Duration : 00:21:23.408000000
FromStats_FrameCount : 465
FromStats_StreamSize : 16126

Text #4
ID : 6
Format : UTF-8
Codec ID : S_TEXT/UTF8
Codec ID/Info : UTF-8 Plain Text
Title : French
Language : French
Default : No
Forced : No
Statistics Tags Issue : mkvmerge v20.0.0 ('I Am The Sun') 64-bit 2018-06-12 13:10:11 / mkvmerge v20.0.0 ('I Am The Sun') 64-bit 2018-06-12 13:10:11 / UTC 2018-05-11 19:19:06
FromStats_BitRate : 99
FromStats_Duration : 00:21:23.408000000
FromStats_FrameCount : 459
FromStats_StreamSize : 15889

Text #5
ID : 7
Format : UTF-8
Codec ID : S_TEXT/UTF8
Codec ID/Info : UTF-8 Plain Text
Title : German
Language : German
Default : No
Forced : No
Statistics Tags Issue : mkvmerge v20.0.0 ('I Am The Sun') 64-bit 2018-06-12 13:10:11 / mkvmerge v20.0.0 ('I Am The Sun') 64-bit 2018-06-12 13:10:11 / UTC 2018-05-11 19:19:06
FromStats_BitRate : 101
FromStats_Duration : 00:21:23.408000000
FromStats_FrameCount : 463
FromStats_StreamSize : 16304

Text #6
ID : 8
Format : UTF-8
Codec ID : S_TEXT/UTF8
Codec ID/Info : UTF-8 Plain Text
Title : Italian
Language : Italian
Default : No
Forced : No
Statistics Tags Issue : mkvmerge v20.0.0 ('I Am The Sun') 64-bit 2018-06-12 13:10:11 / mkvmerge v20.0.0 ('I Am The Sun') 64-bit 2018-06-12 13:10:11 / UTC 2018-05-11 19:19:06
FromStats_BitRate : 106
FromStats_Duration : 00:21:23.408000000
FromStats_FrameCount : 465
FromStats_StreamSize : 17113





Champions S01E08


Champions S01E08


Champions S01E08


Champions S01E08


Champions S01E08

All episodes