Featured TV Shows


Hawaii Five-0 S08E02

Posted By: Tavaz
1080p (FullHD) / WEB-DL IMDb
Hawaii Five-0 S08E02

Hawaii Five-0 S08E02
WEB-DL | MKV | 1920x1080 | English | H264 @ 11314 kbps | E-AC-3 @ 640 kbps | 42 min 33 s | 3.55 GiB
Genre: Action, Crime, Drama

Steve McGarrett returns home to Oahu, in order to find his father's killer. The governor offers him the chance to run his own task force (Five-0). Steve's team is joined by Chin Ho Kelly, Danny "Danno" Williams, and Kono Kalakaua.

ba2df30fda4745fba541858741794b44.mkv (3.6 GB)



General
Unique ID : 218226970301752296664713483538494125518 (0xA42CFC555FC2D7E991B7A9F34D67F5CE)
Complete name : ./ba2df30fda4745fba541858741794b44.mkv
Format : Matroska
Format version : Version 4 / Version 2
File size : 3.55 GiB
Duration : 42 min 33 s
Overall bit rate mode : Variable
Overall bit rate : 12.0 Mb/s
Encoded date : UTC 2017-10-07 18:44:58
Writing application : mkvmerge v13.0.0 ('The Juggler') 64bit
Writing library : libebml v1.3.4 + libmatroska v1.4.5

Video
ID : 1
Format : AVC
Format/Info : Advanced Video Codec
Format profile : High@L4
Format settings : CABAC / 4 Ref Frames
Format settings, CABAC : Yes
Format settings, RefFrames : 4 frames
Codec ID : V_MPEG4/ISO/AVC
Duration : 42 min 33 s
Bit rate mode : Variable
Bit rate : 11.3 Mb/s
Maximum bit rate : 15.0 Mb/s
Width : 1 920 pixels
Height : 1 080 pixels
Display aspect ratio : 16:9
Frame rate mode : Constant
Frame rate : 23.976 (24000/1001) FPS
Color space : YUV
Chroma subsampling : 4:2:0
Bit depth : 8 bits
Scan type : Progressive
Bits/(Pixel*Frame) : 0.228
Stream size : 3.36 GiB (95%)
Default : Yes
Forced : No
Color range : Limited
Color primaries : BT.709
Transfer characteristics : BT.709
Matrix coefficients : BT.709

Audio
ID : 2
Format : E-AC-3
Format/Info : Enhanced Audio Coding 3
Format settings, Endianness : Big
Codec ID : A_EAC3
Duration : 42 min 33 s
Bit rate mode : Constant
Bit rate : 640 kb/s
Channel(s) : 6 channels
Channel positions : Front: L C R, Side: L R, LFE
Sampling rate : 48.0 kHz
Frame rate : 187.500 FPS (256 SPF)
Compression mode : Lossy
Stream size : 195 MiB (5%)
Service kind : Complete Main
Default : Yes
Forced : No





Hawaii Five-0 S08E02


Hawaii Five-0 S08E02


Hawaii Five-0 S08E02


Hawaii Five-0 S08E02


Hawaii Five-0 S08E02

All episodes