Featured TV Shows


Hawaii Five-0 S09E07

Posted By: Tavaz
1080p (FullHD) / WEBRip IMDb
Hawaii Five-0 S09E07

Hawaii Five-0 S09E07
WEB-DL | MKV | 1920x1080 | English | H264 @ 12301 kbps | E-AC-3 @ 640 kbps | 43 min 17 s | 3.91 GiB
Subtitles: English
Genre: Action, Crime, Drama

Steve McGarrett returns home to Oahu, in order to find his father's killer. The governor offers him the chance to run his own task force (Five-0). Steve's team is joined by Chin Ho Kelly, Danny "Danno" Williams, and Kono Kalakaua.

f9cdd27e05934404ac8306bf09d6dd43.mkv (3.9 GB)



General
Unique ID : 105151613025989026486010785530491093131 (0x4F1B76CA31B086E29295AAE54ABAC08B)
Complete name : ./f9cdd27e05934404ac8306bf09d6dd43.mkv
Format : Matroska
Format version : Version 4 / Version 2
File size : 3.91 GiB
Duration : 43 min 17 s
Overall bit rate mode : Variable
Overall bit rate : 12.9 Mb/s
Encoded date : UTC 2018-11-10 19:02:37
Writing application : mkvmerge v28.2.0 ('The Awakening') 64-bit
Writing library : libebml v1.3.6 + libmatroska v1.4.9

Video
ID : 1
Format : AVC
Format/Info : Advanced Video Codec
Format profile : High@L4
Format settings : CABAC / 4 Ref Frames
Format settings, CABAC : Yes
Format settings, RefFrames : 4 frames
Codec ID : V_MPEG4/ISO/AVC
Duration : 43 min 17 s
Bit rate mode : Variable
Bit rate : 12.3 Mb/s
Maximum bit rate : 15.0 Mb/s
Width : 1 920 pixels
Height : 1 080 pixels
Display aspect ratio : 16:9
Frame rate mode : Constant
Frame rate : 23.976 (24000/1001) FPS
Color space : YUV
Chroma subsampling : 4:2:0
Bit depth : 8 bits
Scan type : Progressive
Bits/(Pixel*Frame) : 0.247
Stream size : 3.72 GiB (95%)
Default : Yes
Forced : No
Color range : Limited
Color primaries : BT.709
Transfer characteristics : BT.709
Matrix coefficients : BT.709

Audio
ID : 2
Format : E-AC-3
Format/Info : Enhanced Audio Coding 3
Format settings, Endianness : Big
Codec ID : A_EAC3
Duration : 43 min 17 s
Bit rate mode : Constant
Bit rate : 640 kb/s
Channel(s) : 6 channels
Channel positions : Front: L C R, Side: L R, LFE
Sampling rate : 48.0 kHz
Frame rate : 187.500 FPS (256 SPF)
Compression mode : Lossy
Stream size : 198 MiB (5%)
Language : English
Service kind : Complete Main
Default : Yes
Forced : No

Text
ID : 3
Format : UTF-8
Codec ID : S_TEXT/UTF8
Codec ID/Info : UTF-8 Plain Text
Duration : 42 min 47 s
Bit rate : 87 b/s
Count of elements : 832
Stream size : 27.4 KiB (0%)
Title : SDH
Language : English
Default : No
Forced : No





Hawaii Five-0 S09E07


Hawaii Five-0 S09E07


Hawaii Five-0 S09E07


Hawaii Five-0 S09E07


Hawaii Five-0 S09E07

All episodes