Featured TV Shows


Hawaii Five-0 S09E07

Posted By: Tavaz
720p (HD) / WEBRip IMDb
Hawaii Five-0 S09E07

Hawaii Five-0 S09E07
WEB-DL | MKV | 1280x720 | English | H264 @ 3864 kbps | E-AC-3 @ 640 kbps | 43 min 17 s | 1.36 GiB
Subtitles: English
Genre: Action, Crime, Drama

Steve McGarrett returns home to Oahu, in order to find his father's killer. The governor offers him the chance to run his own task force (Five-0). Steve's team is joined by Chin Ho Kelly, Danny "Danno" Williams, and Kono Kalakaua.

390705c9227249fdb683d9ff2dc1a272.mkv (1.4 GB)



General
Unique ID : 154778873010128957774730842379584694422 (0x7471539DF321C0F5D3E2A22CCA6A6896)
Complete name : ./390705c9227249fdb683d9ff2dc1a272.mkv
Format : Matroska
Format version : Version 4 / Version 2
File size : 1.36 GiB
Duration : 43 min 17 s
Overall bit rate mode : Variable
Overall bit rate : 4 506 kb/s
Encoded date : UTC 2018-11-10 18:57:16
Writing application : mkvmerge v28.2.0 ('The Awakening') 64-bit
Writing library : libebml v1.3.6 + libmatroska v1.4.9

Video
ID : 1
Format : AVC
Format/Info : Advanced Video Codec
Format profile : High@L3.1
Format settings : CABAC / 5 Ref Frames
Format settings, CABAC : Yes
Format settings, RefFrames : 5 frames
Codec ID : V_MPEG4/ISO/AVC
Duration : 43 min 17 s
Bit rate mode : Variable
Bit rate : 3 864 kb/s
Maximum bit rate : 4 500 kb/s
Width : 1 280 pixels
Height : 720 pixels
Display aspect ratio : 16:9
Frame rate mode : Constant
Frame rate : 23.976 (24000/1001) FPS
Color space : YUV
Chroma subsampling : 4:2:0
Bit depth : 8 bits
Scan type : Progressive
Bits/(Pixel*Frame) : 0.175
Stream size : 1.17 GiB (86%)
Default : Yes
Forced : No
Color range : Limited
Color primaries : BT.709
Transfer characteristics : BT.709
Matrix coefficients : BT.709

Audio
ID : 2
Format : E-AC-3
Format/Info : Enhanced Audio Coding 3
Format settings, Endianness : Big
Codec ID : A_EAC3
Duration : 43 min 17 s
Bit rate mode : Constant
Bit rate : 640 kb/s
Channel(s) : 6 channels
Channel positions : Front: L C R, Side: L R, LFE
Sampling rate : 48.0 kHz
Frame rate : 187.500 FPS (256 SPF)
Compression mode : Lossy
Stream size : 198 MiB (14%)
Language : English
Service kind : Complete Main
Default : Yes
Forced : No

Text
ID : 3
Format : UTF-8
Codec ID : S_TEXT/UTF8
Codec ID/Info : UTF-8 Plain Text
Duration : 42 min 47 s
Bit rate : 87 b/s
Count of elements : 832
Stream size : 27.4 KiB (0%)
Title : SDH
Language : English
Default : No
Forced : No





Hawaii Five-0 S09E07


Hawaii Five-0 S09E07


Hawaii Five-0 S09E07


Hawaii Five-0 S09E07


Hawaii Five-0 S09E07

All episodes