Featured TV Shows


הוואי 5-0 S08E08

Posted By: Tavaz
720p (HD) / WEBRip IMDb
הוואי 5-0 S08E08

הוואי 5-0 S08E08
WEB-DL | MKV | 1280x720 | English | H264 @ 3451 kbps | E-AC-3 @ 640 kbps | 43 min 6 s | 1.23 GiB
Genre: אקשן, פשע, דרמה

העלילה עוקבת אחר יחידת עילית משטרתית, ששמה לה למטרה לחסל את הפשע ולשמור על הסדר בחופים שטופי השמש של איי הוואי. סטיב מק'גרט, יוצא בכיר מחיל הים, חוזר לאואהו, הוואי, במטרה לחקור את רצח אביו, ונשאר באזור כדי להוביל צוות מיוחד שילחם בפשעים חמורים שמתבצעים באיים. אליו מצטרפים דני "דאנו" וויליאמס, שוטר מניו-ג'רזי שנדד להוואי בעקבות בתו הקטנה. צ'ין הו קלי, בן חסותו של אביו המנוח של מק'גרט ו-קונו קאלאקאווה, בת-דודתו של צ'ין, גולשת מקומית שרק יצאה מהאקדמיה המשטרתית, ומשתוקקת להשתלב ביחידה.

1533fcb7f344495ebf30365cf033520d.mkv (1.2 GB)



General
Unique ID : 214716446294063183266626761426594349177 (0xA188E22307AC73F4A66B8D31005AC079)
Complete name : ./1533fcb7f344495ebf30365cf033520d.mkv
Format : Matroska
Format version : Version 4 / Version 2
File size : 1.23 GiB
Duration : 43 min 6 s
Overall bit rate mode : Variable
Overall bit rate : 4 094 kb/s
Encoded date : UTC 2017-12-03 16:51:01
Writing application : mkvmerge v13.0.0 ('The Juggler') 64bit
Writing library : libebml v1.3.4 + libmatroska v1.4.5

Video
ID : 1
Format : AVC
Format/Info : Advanced Video Codec
Format profile : High@L3.1
Format settings : CABAC / 5 Ref Frames
Format settings, CABAC : Yes
Format settings, RefFrames : 5 frames
Codec ID : V_MPEG4/ISO/AVC
Duration : 43 min 6 s
Bit rate mode : Variable
Bit rate : 3 452 kb/s
Maximum bit rate : 4 500 kb/s
Width : 1 280 pixels
Height : 720 pixels
Display aspect ratio : 16:9
Frame rate mode : Constant
Frame rate : 23.976 (24000/1001) FPS
Color space : YUV
Chroma subsampling : 4:2:0
Bit depth : 8 bits
Scan type : Progressive
Bits/(Pixel*Frame) : 0.156
Stream size : 1.04 GiB (84%)
Default : Yes
Forced : No
Color range : Limited
Color primaries : BT.709
Transfer characteristics : BT.709
Matrix coefficients : BT.709

Audio
ID : 2
Format : E-AC-3
Format/Info : Enhanced Audio Coding 3
Format settings, Endianness : Big
Codec ID : A_EAC3
Duration : 43 min 6 s
Bit rate mode : Constant
Bit rate : 640 kb/s
Channel(s) : 6 channels
Channel positions : Front: L C R, Side: L R, LFE
Sampling rate : 48.0 kHz
Frame rate : 187.500 FPS (256 SPF)
Compression mode : Lossy
Stream size : 197 MiB (16%)
Service kind : Complete Main
Default : Yes
Forced : No

Text
ID : 3
Format : UTF-8
Codec ID : S_TEXT/UTF8
Codec ID/Info : UTF-8 Plain Text
Duration : 42 min 15 s
Bit rate : 104 b/s
Count of elements : 1022
Stream size : 32.4 KiB (0%)
Title : English [CC]
Default : No
Forced : No





הוואי 5-0 S08E08


הוואי 5-0 S08E08


הוואי 5-0 S08E08


הוואי 5-0 S08E08


הוואי 5-0 S08E08

All episodes