Featured TV Shows


Hawaii Five-0 S09E06

Posted By: Tavaz
720p (HD) / WEBRip IMDb
Hawaii Five-0 S09E06

Hawaii Five-0 S09E06
WEB-DL | MKV | 1280x720 | English | H264 @ 4179 kbps | E-AC-3 @ 640 kbps | 43 min 45 s | 1.47 GiB
Subtitles: English
Genre: Action, Crime, Drama

Steve McGarrett returns home to Oahu, in order to find his father's killer. The governor offers him the chance to run his own task force (Five-0). Steve's team is joined by Chin Ho Kelly, Danny "Danno" Williams, and Kono Kalakaua.

c0b6dee2feae428199aa4a719c39cb58.mkv (1.5 GB)



General
Unique ID : 289508617461183764352435539636066776416 (0xD9CD54E0A2AA2667241538907B5CF560)
Complete name : ./c0b6dee2feae428199aa4a719c39cb58.mkv
Format : Matroska
Format version : Version 4 / Version 2
File size : 1.47 GiB
Duration : 43 min 45 s
Overall bit rate : 4 822 kb/s
Encoded date : UTC 2018-11-03 10:48:34
Writing application : mkvmerge v28.2.0 ('The Awakening') 64-bit
Writing library : libebml v1.3.6 + libmatroska v1.4.9

Video
ID : 1
Format : AVC
Format/Info : Advanced Video Codec
Format profile : High@L3.1
Format settings : CABAC / 5 Ref Frames
Format settings, CABAC : Yes
Format settings, RefFrames : 5 frames
Codec ID : V_MPEG4/ISO/AVC
Duration : 43 min 45 s
Bit rate : 4 180 kb/s
Width : 1 280 pixels
Height : 720 pixels
Display aspect ratio : 16:9
Frame rate mode : Constant
Frame rate : 24.000 FPS
Color space : YUV
Chroma subsampling : 4:2:0
Bit depth : 8 bits
Scan type : Progressive
Bits/(Pixel*Frame) : 0.189
Stream size : 1.28 GiB (87%)
Default : Yes
Forced : No
Color range : Limited
Color primaries : BT.709
Transfer characteristics : BT.709
Matrix coefficients : BT.709

Audio
ID : 2
Format : E-AC-3
Format/Info : Enhanced Audio Coding 3
Format settings, Endianness : Big
Codec ID : A_EAC3
Duration : 43 min 45 s
Bit rate mode : Constant
Bit rate : 640 kb/s
Channel(s) : 6 channels
Channel positions : Front: L C R, Side: L R, LFE
Sampling rate : 48.0 kHz
Frame rate : 187.500 FPS (256 SPF)
Compression mode : Lossy
Stream size : 200 MiB (13%)
Language : English
Service kind : Complete Main
Default : Yes
Forced : No

Text
ID : 3
Format : UTF-8
Codec ID : S_TEXT/UTF8
Codec ID/Info : UTF-8 Plain Text
Duration : 43 min 10 s
Bit rate : 92 b/s
Count of elements : 898
Stream size : 29.3 KiB (0%)
Title : SDH
Language : English
Default : No
Forced : No





Hawaii Five-0 S09E06


Hawaii Five-0 S09E06


Hawaii Five-0 S09E06


Hawaii Five-0 S09E06


Hawaii Five-0 S09E06

All episodes