Featured TV Shows


Hawaii Five-0 S09E09

Posted By: Tavaz
720p (HD) / WEB-DL IMDb
Hawaii Five-0 S09E09

Hawaii Five-0 S09E09
WEB-DL | MKV | 1280x720 | H264 @ 2939 kbps | E-AC-3 @ 640 kbps | 43 min 24 s | 1.11 GiB
Genre: Action, Crime, Drama

Steve McGarrett returns home to Oahu, in order to find his father's killer. The governor offers him the chance to run his own task force (Five-0). Steve's team is joined by Chin Ho Kelly, Danny "Danno" Williams, and Kono Kalakaua.

dd1c04bef0384dd48303c5b1e1094dad.mkv (1.1 GB)



General
Unique ID : 274008509316113846282910264651482564666 (0xCE241E8B286D0AA865C650F07D1E883A)
Complete name : ./dd1c04bef0384dd48303c5b1e1094dad.mkv
Format : Matroska
Format version : Version 4 / Version 2
File size : 1.11 GiB
Duration : 43 min 24 s
Overall bit rate : 3 652 kb/s
Writing application : Lavf57.82.100
Writing library : Lavf57.82.100
ErrorDetectionType : Per level 1

Video
ID : 1
Format : AVC
Format/Info : Advanced Video Codec
Format profile : High@L3.1
Format settings : CABAC / 5 Ref Frames
Format settings, CABAC : Yes
Format settings, RefFrames : 5 frames
Codec ID : V_MPEG4/ISO/AVC
Duration : 43 min 24 s
Bit rate : 2 940 kb/s
Width : 1 280 pixels
Height : 720 pixels
Display aspect ratio : 16:9
Frame rate mode : Constant
Frame rate : 23.976 (24000/1001) FPS
Color space : YUV
Chroma subsampling : 4:2:0
Bit depth : 8 bits
Scan type : Progressive
Bits/(Pixel*Frame) : 0.133
Stream size : 913 MiB (80%)
Default : Yes
Forced : No
Color range : Limited
Color primaries : BT.709
Transfer characteristics : BT.709
Matrix coefficients : BT.709

Audio
ID : 2
Format : E-AC-3
Format/Info : Enhanced Audio Coding 3
Format settings, Endianness : Big
Codec ID : A_EAC3
Duration : 43 min 24 s
Bit rate mode : Constant
Bit rate : 640 kb/s
Channel(s) : 6 channels
Channel positions : Front: L C R, Side: L R, LFE
Sampling rate : 48.0 kHz
Frame rate : 187.500 FPS (256 SPF)
Bit depth : 32 bits
Compression mode : Lossy
Stream size : 199 MiB (18%)
Service kind : Complete Main
Default : Yes
Forced : No

Text
ID : 3
Format : ASS
Codec ID : S_TEXT/ASS
Codec ID/Info : Advanced Sub Station Alpha
Duration : 42 min 56 s
Compression mode : Lossless
Writing library : Lavc57.106.101 ssa
Default : No
Forced : No





Hawaii Five-0 S09E09


Hawaii Five-0 S09E09


Hawaii Five-0 S09E09


Hawaii Five-0 S09E09


Hawaii Five-0 S09E09

All episodes