Featured TV Shows


הוואי 5-0 S09E12

Posted By: Tavaz
720p (HD) / WEB-DL IMDb
הוואי 5-0 S09E12

הוואי 5-0 S09E12
WEB-DL | MKV | 1280x720 | English | H264 @ 2561 kbps | E-AC-3 @ 640 kbps | 42 min 56 s | 984 MiB
Subtitles: English
Genre: אקשן, פשע, דרמה

העלילה עוקבת אחר יחידת עילית משטרתית, ששמה לה למטרה לחסל את הפשע ולשמור על הסדר בחופים שטופי השמש של איי הוואי. סטיב מק'גרט, יוצא בכיר מחיל הים, חוזר לאואהו, הוואי, במטרה לחקור את רצח אביו, ונשאר באזור כדי להוביל צוות מיוחד שילחם בפשעים חמורים שמתבצעים באיים. אליו מצטרפים דני "דאנו" וויליאמס, שוטר מניו-ג'רזי שנדד להוואי בעקבות בתו הקטנה. צ'ין הו קלי, בן חסותו של אביו המנוח של מק'גרט ו-קונו קאלאקאווה, בת-דודתו של צ'ין, גולשת מקומית שרק יצאה מהאקדמיה המשטרתית, ומשתוקקת להשתלב ביחידה.

01d2807351104221b9a67dd77301ac7d.mkv (984.0 MB)



General
Unique ID : 290796269073841159063253572056132729393 (0xDAC55300E75AFCD960A7CEEDD2BDBA31)
Complete name : ./01d2807351104221b9a67dd77301ac7d.mkv
Format : Matroska
Format version : Version 4 / Version 2
File size : 984 MiB
Duration : 42 min 56 s
Overall bit rate : 3 204 kb/s
Encoded date : UTC 2019-01-12 19:45:39
Writing application : mkvmerge v30.1.0 ('Forever And More') 64-bit
Writing library : libebml v1.3.6 + libmatroska v1.4.9

Video
ID : 1
Format : AVC
Format/Info : Advanced Video Codec
Format profile : High@L3.1
Format settings : CABAC / 5 Ref Frames
Format settings, CABAC : Yes
Format settings, RefFrames : 5 frames
Codec ID : V_MPEG4/ISO/AVC
Duration : 42 min 56 s
Bit rate : 2 562 kb/s
Width : 1 280 pixels
Height : 720 pixels
Display aspect ratio : 16:9
Frame rate mode : Constant
Frame rate : 23.976 (24000/1001) FPS
Color space : YUV
Chroma subsampling : 4:2:0
Bit depth : 8 bits
Scan type : Progressive
Bits/(Pixel*Frame) : 0.116
Stream size : 787 MiB (80%)
Default : Yes
Forced : No
Color range : Limited
Color primaries : BT.709
Transfer characteristics : BT.709
Matrix coefficients : BT.709

Audio
ID : 2
Format : E-AC-3
Format/Info : Enhanced Audio Coding 3
Format settings, Endianness : Big
Codec ID : A_EAC3
Duration : 42 min 56 s
Bit rate mode : Constant
Bit rate : 640 kb/s
Channel(s) : 6 channels
Channel positions : Front: L C R, Side: L R, LFE
Sampling rate : 48.0 kHz
Frame rate : 187.500 FPS (256 SPF)
Compression mode : Lossy
Stream size : 197 MiB (20%)
Language : English
Service kind : Complete Main
Default : Yes
Forced : No

Text #1
ID : 3
Format : UTF-8
Codec ID : S_TEXT/UTF8
Codec ID/Info : UTF-8 Plain Text
Duration : 42 min 26 s
Bit rate : 102 b/s
Count of elements : 962
Stream size : 31.8 KiB (0%)
Language : English
Default : No
Forced : No

Text #2
ID : 4
Format : UTF-8
Codec ID : S_TEXT/UTF8
Codec ID/Info : UTF-8 Plain Text
Duration : 42 min 26 s
Bit rate : 102 b/s
Count of elements : 967
Stream size : 31.9 KiB (0%)
Title : SDH
Language : English
Default : No
Forced : No





הוואי 5-0 S09E12


הוואי 5-0 S09E12


הוואי 5-0 S09E12


הוואי 5-0 S09E12


הוואי 5-0 S09E12

All episodes