Featured TV Shows


Hawaii Five-0 S09E13

Posted By: Tavaz
720p (HD) / WEB-DL IMDb
Hawaii Five-0 S09E13

Hawaii Five-0 S09E13
WEB-DL | MKV | 1280x720 | English | H264 @ 2748 kbps | E-AC-3 @ 640 kbps | 43 min 40 s | 1.03 GiB
Subtitles: English
Genre: Action, Crime, Drama

Steve McGarrett returns home to Oahu, in order to find his father's killer. The governor offers him the chance to run his own task force (Five-0). Steve's team is joined by Chin Ho Kelly, Danny "Danno" Williams, and Kono Kalakaua.

23bce62fbbdc496786592ce4d70fe7d3.mkv (1.0 GB)



General
Unique ID : 281186889486137237304035883604447399433 (0xD38AA002D22F7F464519609072390E09)
Complete name : ./23bce62fbbdc496786592ce4d70fe7d3.mkv
Format : Matroska
Format version : Version 4 / Version 2
File size : 1.03 GiB
Duration : 43 min 40 s
Overall bit rate : 3 391 kb/s
Encoded date : UTC 2019-01-20 04:09:08
Writing application : mkvmerge v30.1.0 ('Forever And More') 64-bit
Writing library : libebml v1.3.6 + libmatroska v1.4.9

Video
ID : 1
Format : AVC
Format/Info : Advanced Video Codec
Format profile : High@L3.1
Format settings : CABAC / 5 Ref Frames
Format settings, CABAC : Yes
Format settings, RefFrames : 5 frames
Codec ID : V_MPEG4/ISO/AVC
Duration : 43 min 40 s
Bit rate : 2 749 kb/s
Width : 1 280 pixels
Height : 720 pixels
Display aspect ratio : 16:9
Frame rate mode : Constant
Frame rate : 23.976 (24000/1001) FPS
Color space : YUV
Chroma subsampling : 4:2:0
Bit depth : 8 bits
Scan type : Progressive
Bits/(Pixel*Frame) : 0.124
Stream size : 859 MiB (81%)
Default : Yes
Forced : No
Color range : Limited
Color primaries : BT.709
Transfer characteristics : BT.709
Matrix coefficients : BT.709

Audio
ID : 2
Format : E-AC-3
Format/Info : Enhanced Audio Coding 3
Format settings, Endianness : Big
Codec ID : A_EAC3
Duration : 43 min 40 s
Bit rate mode : Constant
Bit rate : 640 kb/s
Channel(s) : 6 channels
Channel positions : Front: L C R, Side: L R, LFE
Sampling rate : 48.0 kHz
Frame rate : 187.500 FPS (256 SPF)
Compression mode : Lossy
Stream size : 200 MiB (19%)
Language : English
Service kind : Complete Main
Default : Yes
Forced : No

Text #1
ID : 3
Format : UTF-8
Codec ID : S_TEXT/UTF8
Codec ID/Info : UTF-8 Plain Text
Duration : 43 min 0 s
Bit rate : 93 b/s
Count of elements : 847
Stream size : 29.3 KiB (0%)
Language : English
Default : No
Forced : No

Text #2
ID : 4
Format : UTF-8
Codec ID : S_TEXT/UTF8
Codec ID/Info : UTF-8 Plain Text
Duration : 43 min 0 s
Bit rate : 95 b/s
Count of elements : 883
Stream size : 29.9 KiB (0%)
Title : SDH
Language : English
Default : No
Forced : No





Hawaii Five-0 S09E13


Hawaii Five-0 S09E13


Hawaii Five-0 S09E13


Hawaii Five-0 S09E13


Hawaii Five-0 S09E13

All episodes