Featured TV Shows


Hawaii Five-0 S09E15

Posted By: Tavaz
1080p (FullHD) / WEBRip IMDb
Hawaii Five-0 S09E15

Hawaii Five-0 S09E15
WEB-DL | MKV | 1920x1080 | English | H264 @ 10449 kbps | E-AC-3 @ 640 kbps | 43 min 26 s | 3.37 GiB
Genre: Action, Crime, Drama

Steve McGarrett returns home to Oahu, in order to find his father's killer. The governor offers him the chance to run his own task force (Five-0). Steve's team is joined by Chin Ho Kelly, Danny "Danno" Williams, and Kono Kalakaua.

229a7430ffbe4e51b03906c5625381d9.mkv (3.4 GB)



General
Unique ID : 54415467980492541284991297709331709538 (0x28F009B5440F7BEDB4919D3B2E6FFE62)
Complete name : ./229a7430ffbe4e51b03906c5625381d9.mkv
Format : Matroska
Format version : Version 4 / Version 2
File size : 3.37 GiB
Duration : 43 min 26 s
Overall bit rate : 11.1 Mb/s
Encoded date : UTC 2019-02-17 23:39:40
Writing application : mkvmerge v31.0.0 ('Dolores In A Shoestand') 64-bit
Writing library : libebml v1.3.6 + libmatroska v1.4.9

Video
ID : 1
Format : AVC
Format/Info : Advanced Video Codec
Format profile : High@L4
Format settings : CABAC / 4 Ref Frames
Format settings, CABAC : Yes
Format settings, RefFrames : 4 frames
Codec ID : V_MPEG4/ISO/AVC
Duration : 43 min 26 s
Bit rate : 10.4 Mb/s
Width : 1 920 pixels
Height : 1 080 pixels
Display aspect ratio : 16:9
Frame rate mode : Constant
Frame rate : 23.976 (24000/1001) FPS
Color space : YUV
Chroma subsampling : 4:2:0
Bit depth : 8 bits
Scan type : Progressive
Bits/(Pixel*Frame) : 0.210
Stream size : 3.17 GiB (94%)
Default : Yes
Forced : No
Color range : Limited
Color primaries : BT.709
Transfer characteristics : BT.709
Matrix coefficients : BT.709

Audio
ID : 2
Format : E-AC-3
Format/Info : Enhanced Audio Coding 3
Format settings, Endianness : Big
Codec ID : A_EAC3
Duration : 43 min 26 s
Bit rate mode : Constant
Bit rate : 640 kb/s
Channel(s) : 6 channels
Channel positions : Front: L C R, Side: L R, LFE
Sampling rate : 48.0 kHz
Frame rate : 187.500 FPS (256 SPF)
Compression mode : Lossy
Stream size : 199 MiB (6%)
Language : English
Service kind : Complete Main
Default : Yes
Forced : No





Hawaii Five-0 S09E15


Hawaii Five-0 S09E15


Hawaii Five-0 S09E15


Hawaii Five-0 S09E15


Hawaii Five-0 S09E15

All episodes