Featured TV Shows


하와이 파이브 오 S09E18

Posted By: Tavaz
1080p (FullHD) / WEB-DL IMDb
하와이 파이브 오 S09E18

하와이 파이브 오 S09E18
WEB-DL | MKV | 1920x1080 | English | H264 @ 10000 kbps | E-AC-3 @ 640 kbps | 41 min 35 s | 2.95 GiB
Subtitles: English
Genre: 액션, 범죄, 드라마

하와이를 배경으로 범죄 조직에 맞서 싸우는 블록버스터 액션 드라마

eec01bd3a68a430692675a1b029a722a.mkv (3.0 GB)



General
Unique ID : 210305260809162990095905548398495165323 (0x9E3751E6A26FAFCF18CD7A2292166B8B)
Complete name : ./eec01bd3a68a430692675a1b029a722a.mkv
Format : Matroska
Format version : Version 4 / Version 2
File size : 2.95 GiB
Duration : 41 min 35 s
Overall bit rate : 10.2 Mb/s
Encoded date : UTC 2019-03-10 05:00:52
Writing application : mkvmerge v31.0.0 ('Dolores In A Shoestand') 64-bit
Writing library : libebml v1.3.6 + libmatroska v1.4.9

Video
ID : 1
Format : AVC
Format/Info : Advanced Video Codec
Format profile : High@L4
Format settings : CABAC / 4 Ref Frames
Format settings, CABAC : Yes
Format settings, RefFrames : 4 frames
Codec ID : V_MPEG4/ISO/AVC
Duration : 41 min 35 s
Bit rate mode : Constant
Bit rate : 10 000 kb/s
Width : 1 920 pixels
Height : 1 080 pixels
Display aspect ratio : 16:9
Frame rate mode : Constant
Frame rate : 23.976 (24000/1001) FPS
Color space : YUV
Chroma subsampling : 4:2:0
Bit depth : 8 bits
Scan type : Progressive
Bits/(Pixel*Frame) : 0.201
Stream size : 2.77 GiB (94%)
Default : Yes
Forced : No
Color range : Limited
Color primaries : BT.709
Transfer characteristics : BT.709
Matrix coefficients : BT.709

Audio
ID : 2
Format : E-AC-3
Format/Info : Enhanced Audio Coding 3
Format settings, Endianness : Big
Codec ID : A_EAC3
Duration : 41 min 35 s
Bit rate mode : Constant
Bit rate : 640 kb/s
Channel(s) : 6 channels
Channel positions : Front: L C R, Side: L R, LFE
Sampling rate : 48.0 kHz
Frame rate : 187.500 FPS (256 SPF)
Compression mode : Lossy
Stream size : 190 MiB (6%)
Language : English
Service kind : Complete Main
Default : Yes
Forced : No

Text #1
ID : 3
Format : UTF-8
Codec ID : S_TEXT/UTF8
Codec ID/Info : UTF-8 Plain Text
Duration : 41 min 21 s
Bit rate : 108 b/s
Count of elements : 1018
Stream size : 32.9 KiB (0%)
Language : English
Default : No
Forced : No

Text #2
ID : 4
Format : UTF-8
Codec ID : S_TEXT/UTF8
Codec ID/Info : UTF-8 Plain Text
Duration : 41 min 21 s
Bit rate : 108 b/s
Count of elements : 1027
Stream size : 32.9 KiB (0%)
Title : SDH
Language : English
Default : No
Forced : No





하와이 파이브 오 S09E18


하와이 파이브 오 S09E18


하와이 파이브 오 S09E18


하와이 파이브 오 S09E18


하와이 파이브 오 S09E18

All episodes