Featured TV Shows


Hawaii Five-0 S09E24

Posted By: Tavaz
720p (HD) / WEBRip IMDb
Hawaii Five-0 S09E24

Hawaii Five-0 S09E24
WEB-DL | MKV | 1280x720 | English | H264 @ 5700 kbps | E-AC-3 @ 640 kbps | 43 min 40 s | 1.93 GiB
Subtitles: English
Genre: Action, Crime, Drama


Steve McGarrett returns home to Oahu, in order to find his father's killer. The governor offers him the chance to run his own task force (Five-0). Steve's team is joined by Chin Ho Kelly, Danny "Danno" Williams, and Kono Kalakaua.

33c3962f08344771992b38f22f28bbd5.mkv (1.9 GB)



General
Unique ID : 248750615532094867493627469818734244031 (0xBB23A03BE30CE9A47A58AFF31662F0BF)
Complete name : ./33c3962f08344771992b38f22f28bbd5.mkv
Format : Matroska
Format version : Version 4 / Version 2
File size : 1.93 GiB
Duration : 43 min 40 s
Overall bit rate : 6 343 kb/s
Encoded date : UTC 2019-05-13 12:44:31
Writing application : mkvmerge v33.1.0 ('Primrose') 64-bit
Writing library : libebml v1.3.7 + libmatroska v1.5.0

Video
ID : 1
Format : AVC
Format/Info : Advanced Video Codec
Format profile : High@L3.1
Format settings : CABAC / 4 Ref Frames
Format settings, CABAC : Yes
Format settings, RefFrames : 4 frames
Codec ID : V_MPEG4/ISO/AVC
Duration : 43 min 40 s
Bit rate mode : Constant
Bit rate : 5 701 kb/s
Nominal bit rate : 6 000 kb/s
Width : 1 280 pixels
Height : 720 pixels
Display aspect ratio : 16:9
Frame rate mode : Constant
Frame rate : 23.976 (24000/1001) FPS
Color space : YUV
Chroma subsampling : 4:2:0
Bit depth : 8 bits
Scan type : Progressive
Bits/(Pixel*Frame) : 0.258
Stream size : 1.74 GiB (90%)
Default : Yes
Forced : No
Color range : Limited
Color primaries : BT.709
Transfer characteristics : BT.709
Matrix coefficients : BT.709

Audio
ID : 2
Format : E-AC-3
Format/Info : Enhanced Audio Coding 3
Format settings, Endianness : Big
Codec ID : A_EAC3
Duration : 43 min 40 s
Bit rate mode : Constant
Bit rate : 640 kb/s
Channel(s) : 6 channels
Channel positions : Front: L C R, Side: L R, LFE
Sampling rate : 48.0 kHz
Frame rate : 187.500 FPS (256 SPF)
Compression mode : Lossy
Stream size : 200 MiB (10%)
Language : English
Service kind : Complete Main
Default : Yes
Forced : No

Text #1
ID : 3
Format : UTF-8
Codec ID : S_TEXT/UTF8
Codec ID/Info : UTF-8 Plain Text
Duration : 43 min 4 s
Bit rate : 103 b/s
Count of elements : 934
Stream size : 32.6 KiB (0%)
Language : English
Default : No
Forced : No

Text #2
ID : 4
Format : UTF-8
Codec ID : S_TEXT/UTF8
Codec ID/Info : UTF-8 Plain Text
Duration : 43 min 4 s
Bit rate : 106 b/s
Count of elements : 969
Stream size : 33.5 KiB (0%)
Title : SDH
Language : English
Default : No
Forced : No





Hawaii Five-0 S09E24


Hawaii Five-0 S09E24


Hawaii Five-0 S09E24


Hawaii Five-0 S09E24


Hawaii Five-0 S09E24

All episodes