Index
# A B C D E F G H I J K L M N O P Q R S T U V W Y Z
Tags
Language
Tags

Featured TV Shows


Hawaii Five-0 S10E15

Posted By: Tavaz
1080p (FullHD) / BDRip IMDb
Hawaii Five-0 S10E15

Hawaii Five-0 S10E15
BluRay Remux | MKV | 1920x1080 | English | H264 @ 23590 kbps | DTS | 43 min 31 s | 7.84 GiB
Subtitles: Deutsch, English
Genre: Crime, Drama


Steve McGarrett returns home to Oahu, in order to find his father's killer. The governor offers him the chance to run his own task force (Five-0). Steve's team is joined by Chin Ho Kelly, Danny "Danno" Williams, and Kono Kalakaua.

07f6a6106099a299edfae06714224dbd.mkv (7.8 GB)



General
Unique ID : 12922140669055973283442786012944645032 (0x9B8B6B95E8E1C60C245224875BFBBA8)
Complete name : ./07f6a6106099a299edfae06714224dbd.mkv
Format : Matroska
Format version : Version 4 / Version 2
File size : 7.84 GiB
Duration : 43 min 31 s
Overall bit rate mode : Variable
Overall bit rate : 25.8 Mb/s
Movie name : Hawaii Five-0 - S10E15 - He waha kou o ka he'e
Track name/Position : 15
Track name/Total : 22
Encoded date : UTC 2021-07-18 04:07:55
Writing application : mkvmerge v58.0.0 ('Supper's Ready') 64-bit
Writing library : libebml v1.4.2 + libmatroska v1.6.3
IMDB : tt11596168
TMDB : tv/32798
TVDB : 164541

Video
ID : 1
Format : AVC
Format/Info : Advanced Video Codec
Format profile : High@L4.1
Format settings : CABAC / 4 Ref Frames
Format settings, CABAC : Yes
Format settings, RefFrames : 4 frames
Codec ID : V_MPEG4/ISO/AVC
Duration : 43 min 31 s
Bit rate mode : Variable
Bit rate : 23.6 Mb/s
Maximum bit rate : 30.0 Mb/s
Width : 1 920 pixels
Height : 1 080 pixels
Display aspect ratio : 16:9
Frame rate mode : Constant
Frame rate : 23.976 (24000/1001) FPS
Color space : YUV
Chroma subsampling : 4:2:0
Bit depth : 8 bits
Scan type : Progressive
Bits/(Pixel*Frame) : 0.475
Stream size : 7.17 GiB (91%)
Title : MPEG-4 AVC Video / 23983 kbps / 1080p / 23.976 fps / 16:9 / High Profile 4.1
Language : English
Default : Yes
Forced : No

Audio
ID : 2
Format : DTS
Format/Info : Digital Theater Systems
Format profile : MA / Core
Mode : 16
Format settings, Endianness : Big
Codec ID : A_DTS
Duration : 43 min 30 s
Bit rate mode : Variable / Constant
Bit rate : 2 101 kb/s / 1 509 kb/s
Channel(s) : 6 channels
Channel positions : Front: L C R, Side: L R, LFE
Sampling rate : 48.0 kHz
Frame rate : 93.750 FPS (512 SPF)
Bit depth : 24 bits
Compression mode : Lossless / Lossy
Stream size : 654 MiB (8%)
Title : DTS-HD Master Audio / 5.1 / 48 kHz / 2101 kbps / 24-bit
Language : English
Default : Yes
Forced : No

Text #1
ID : 3
Format : PGS
Codec ID : S_HDMV/PGS
Codec ID/Info : Picture based subtitle format used on BDs/HD-DVDs
Duration : 42 min 58 s
Bit rate : 53.0 kb/s
Count of elements : 1400
Stream size : 16.3 MiB (0%)
Title : SDH
Language : English
Default : No
Forced : No

Text #2
ID : 4
Format : PGS
Codec ID : S_HDMV/PGS
Codec ID/Info : Picture based subtitle format used on BDs/HD-DVDs
Duration : 42 min 58 s
Bit rate : 45.3 kb/s
Count of elements : 1216
Stream size : 13.9 MiB (0%)
Language : German
Default : No
Forced : No

Menu
00:00:00.000 : Chapter 1
00:06:57.042 : Chapter 2
00:17:30.925 : Chapter 3
00:27:07.626 : Chapter 4
00:33:39.726 : Chapter 5
00:43:01.996 : Chapter 6





Hawaii Five-0 S10E15


Hawaii Five-0 S10E15


Hawaii Five-0 S10E15


Hawaii Five-0 S10E15


Hawaii Five-0 S10E15

All episodes