Featured TV Shows


הוואי 5-0 S10E18

Posted By: Tavaz
1080p (FullHD) / WEB-DL IMDb
הוואי 5-0 S10E18

הוואי 5-0 S10E18
WEB-DL | MKV | 1920x1080 | English | H264 @ 12290 kbps | E-AC-3 @ 640 kbps | 43 min 41 s | 3.95 GiB
Subtitles: English
Genre: אקשן, פשע, דרמה


העלילה עוקבת אחר יחידת עילית משטרתית, ששמה לה למטרה לחסל את הפשע ולשמור על הסדר בחופים שטופי השמש של איי הוואי. סטיב מק'גרט, יוצא בכיר מחיל הים, חוזר לאואהו, הוואי, במטרה לחקור את רצח אביו, ונשאר באזור כדי להוביל צוות מיוחד שילחם בפשעים חמורים שמתבצעים באיים. אליו מצטרפים דני "דאנו" וויליאמס, שוטר מניו-ג'רזי שנדד להוואי בעקבות בתו הקטנה. צ'ין הו קלי, בן חסותו של אביו המנוח של מק'גרט ו-קונו קאלאקאווה, בת-דודתו של צ'ין, גולשת מקומית שרק יצאה מהאקדמיה המשטרתית, ומשתוקקת להשתלב ביחידה.

355d899b2d13414095ef58cc0c7307ab.mkv (3.9 GB)



General
Unique ID : 197127845430230873628605096069347691741 (0x944D7129721CEE6D9D7DE76DB3644CDD)
Complete name : ./355d899b2d13414095ef58cc0c7307ab.mkv
Format : Matroska
Format version : Version 4 / Version 2
File size : 3.95 GiB
Duration : 43 min 41 s
Overall bit rate : 12.9 Mb/s
Encoded date : UTC 2020-02-29 14:41:19
Writing application : mkvmerge v41.0.0 ('Smarra') 64-bit
Writing library : libebml v1.3.9 + libmatroska v1.5.2

Video
ID : 1
Format : AVC
Format/Info : Advanced Video Codec
Format profile : High@L4
Format settings : CABAC / 4 Ref Frames
Format settings, CABAC : Yes
Format settings, RefFrames : 4 frames
Codec ID : V_MPEG4/ISO/AVC
Duration : 43 min 41 s
Bit rate : 12.3 Mb/s
Width : 1 920 pixels
Height : 1 080 pixels
Display aspect ratio : 16:9
Frame rate mode : Constant
Frame rate : 24.000 FPS
Color space : YUV
Chroma subsampling : 4:2:0
Bit depth : 8 bits
Scan type : Progressive
Bits/(Pixel*Frame) : 0.247
Stream size : 3.75 GiB (95%)
Default : Yes
Forced : No
Color range : Limited
Color primaries : BT.709
Transfer characteristics : BT.709
Matrix coefficients : BT.709

Audio
ID : 2
Format : E-AC-3
Format/Info : Enhanced Audio Coding 3
Format settings, Endianness : Big
Codec ID : A_EAC3
Duration : 43 min 41 s
Bit rate mode : Constant
Bit rate : 640 kb/s
Channel(s) : 6 channels
Channel positions : Front: L C R, Side: L R, LFE
Sampling rate : 48.0 kHz
Frame rate : 187.500 FPS (256 SPF)
Compression mode : Lossy
Stream size : 200 MiB (5%)
Language : English
Service kind : Complete Main
Default : Yes
Forced : No

Text #1
ID : 3
Format : UTF-8
Codec ID : S_TEXT/UTF8
Codec ID/Info : UTF-8 Plain Text
Duration : 43 min 13 s
Bit rate : 90 b/s
Count of elements : 849
Stream size : 28.7 KiB (0%)
Language : English
Default : No
Forced : No

Text #2
ID : 4
Format : UTF-8
Codec ID : S_TEXT/UTF8
Codec ID/Info : UTF-8 Plain Text
Duration : 43 min 13 s
Bit rate : 92 b/s
Count of elements : 899
Stream size : 29.4 KiB (0%)
Title : SDH
Language : English
Default : No
Forced : No





הוואי 5-0 S10E18


הוואי 5-0 S10E18


הוואי 5-0 S10E18


הוואי 5-0 S10E18


הוואי 5-0 S10E18

All episodes