Featured TV Shows


House of Cards S06E04

Posted By: Tavaz
720p (HD) / WEBRip IMDb
House of Cards S06E04

House of Cards S06E04
WEB-DL | MKV | 1280x720 | German / English | H264 @ 1330 kbps | AC-3 @ 384 kbps | 52 min 51 s | 789 MiB
Genre: Drama

Emmy- und Golden-Globe-prämiertes Politdrama über einen skrupellosen Kongressabgeordneten, dem jedes Mittel recht ist, um die Macht in Washington an sich zu reißen.

HO S06E04 Macht oder Liebe HD.mkv (789.3 MB)



General
Unique ID : 140260272688172190578811861912195082031 (0x6985255ADE90F862099259BA6996A72F)
Complete name : ./Ho Kartenhaeuschen S06E04 GermanDL HD/HO S06E04 Macht oder Liebe HD.mkv
Format : Matroska
Format version : Version 2
File size : 789 MiB
Duration : 52 min 51 s
Overall bit rate mode : Variable
Overall bit rate : 2 088 kb/s
Movie name : House.of.Cards.S06E04.Macht.oder.Liebe.GERMAN.DUBBED.DL.720p.WebHD.x264-TVP
Encoded date : UTC 2018-11-10 20:43:26
Writing application : mkvmerge v5.6.0 ('Kenya Kane') built on May 28 2012 06:47:39
Writing library : libebml v1.2.2 + libmatroska v1.3.0

Video
ID : 1
Format : AVC
Format/Info : Advanced Video Codec
Format profile : Main@L3.1
Format settings : CABAC / 3 Ref Frames
Format settings, CABAC : Yes
Format settings, RefFrames : 3 frames
Codec ID : V_MPEG4/ISO/AVC
Duration : 52 min 51 s
Bit rate mode : Variable
Bit rate : 1 330 kb/s
Maximum bit rate : 1 995 kb/s
Width : 1 280 pixels
Height : 720 pixels
Display aspect ratio : 16:9
Frame rate mode : Constant
Frame rate : 23.976 (24000/1001) FPS
Color space : YUV
Chroma subsampling : 4:2:0
Bit depth : 8 bits
Scan type : Progressive
Bits/(Pixel*Frame) : 0.060
Stream size : 483 MiB (61%)
Title : tvp-hoc-s06e04-720p
Writing library : x264 core 148 r2715 7e75228
Encoding settings : cabac=1 / ref=3 / deblock=1:0:0 / analyse=0x1:0x111 / me=umh / subme=10 / psy=1 / psy_rd=1.00:0.00 / mixed_ref=1 / me_range=24 / chroma_me=1 / trellis=2 / 8x8dct=0 / cqm=0 / deadzone=21,11 / fast_pskip=1 / chroma_qp_offset=-2 / threads=8 / lookahead_threads=1 / sliced_threads=0 / nr=0 / decimate=1 / interlaced=0 / bluray_compat=0 / stitchable=1 / constrained_intra=0 / bframes=2 / b_pyramid=0 / b_adapt=2 / b_bias=0 / direct=3 / weightb=1 / open_gop=0 / weightp=2 / keyint=48 / keyint_min=25 / scenecut=0 / intra_refresh=0 / rc_lookahead=48 / rc=2pass / mbtree=1 / bitrate=1330 / ratetol=1.0 / qcomp=0.50 / qpmin=6 / qpmax=51 / qpstep=4 / cplxblur=20.0 / qblur=0.5 / vbv_maxrate=1995 / vbv_bufsize=2660 / nal_hrd=vbr / filler=0 / ip_ratio=1.40 / aq=1:1.00
Language : German
Default : Yes
Forced : Yes

Audio #1
ID : 2
Format : AC-3
Format/Info : Audio Coding 3
Format settings, Endianness : Big
Codec ID : A_AC3
Duration : 52 min 51 s
Bit rate mode : Constant
Bit rate : 384 kb/s
Channel(s) : 6 channels
Channel positions : Front: L C R, Side: L R, LFE
Sampling rate : 48.0 kHz
Frame rate : 31.250 FPS (1536 SPF)
Bit depth : 16 bits
Compression mode : Lossy
Stream size : 145 MiB (18%)
Language : German
Service kind : Complete Main
Default : Yes
Forced : Yes

Audio #2
ID : 3
Format : AC-3
Format/Info : Audio Coding 3
Format settings, Endianness : Big
Codec ID : A_AC3
Duration : 52 min 51 s
Bit rate mode : Constant
Bit rate : 384 kb/s
Channel(s) : 6 channels
Channel positions : Front: L C R, Side: L R, LFE
Sampling rate : 48.0 kHz
Frame rate : 31.250 FPS (1536 SPF)
Bit depth : 16 bits
Compression mode : Lossy
Stream size : 145 MiB (18%)
Language : English
Service kind : Complete Main
Default : No
Forced : No





House of Cards S06E04


House of Cards S06E04


House of Cards S06E04


House of Cards S06E04


House of Cards S06E04

All episodes