Featured TV Shows


Ice S02E01

Posted By: Tavaz
1080p (FullHD) / WEB-DL IMDb
Ice S02E01

Ice S02E01
WEB-DL | MKV | 1920x1080 | English | H264 @ 9470 kbps | E-AC-3 @ 640 kbps | 49 min 19 s | 3.48 GiB
Subtitles: English
Genre: Crime, Drama


A diamond dealer navigates the culturally diverse and treacherous world of the diamond business.

0326516a77a14f8cac550a754a349612.mkv (3.5 GB)



General
Unique ID : 123185624126722112165302744599148218916 (0x5CACB02F575505867A368F086D59CA24)
Complete name : ./0326516a77a14f8cac550a754a349612.mkv
Format : Matroska
Format version : Version 4 / Version 2
File size : 3.48 GiB
Duration : 49 min 19 s
Overall bit rate : 10.1 Mb/s
Encoded date : UTC 2019-06-06 00:25:01
Writing application : mkvmerge v34.0.0 ('Sight and Seen') 64-bit
Writing library : libebml v1.3.7 + libmatroska v1.5.0

Video
ID : 1
Format : AVC
Format/Info : Advanced Video Codec
Format profile : High@L4
Format settings : CABAC / 4 Ref Frames
Format settings, CABAC : Yes
Format settings, RefFrames : 4 frames
Codec ID : V_MPEG4/ISO/AVC
Duration : 49 min 19 s
Bit rate mode : Constant
Bit rate : 9 470 kb/s
Nominal bit rate : 10 000 kb/s
Width : 1 920 pixels
Height : 1 080 pixels
Display aspect ratio : 16:9
Frame rate mode : Constant
Frame rate : 23.976 (24000/1001) FPS
Color space : YUV
Chroma subsampling : 4:2:0
Bit depth : 8 bits
Scan type : Progressive
Bits/(Pixel*Frame) : 0.190
Stream size : 3.26 GiB (94%)
Default : Yes
Forced : No
Color range : Limited
Color primaries : BT.709
Transfer characteristics : BT.709
Matrix coefficients : BT.709

Audio
ID : 2
Format : E-AC-3
Format/Info : Enhanced Audio Coding 3
Format settings, Endianness : Big
Codec ID : A_EAC3
Duration : 49 min 19 s
Bit rate mode : Constant
Bit rate : 640 kb/s
Channel(s) : 6 channels
Channel positions : Front: L C R, Side: L R, LFE
Sampling rate : 48.0 kHz
Frame rate : 187.500 FPS (256 SPF)
Compression mode : Lossy
Stream size : 226 MiB (6%)
Language : English
Service kind : Complete Main
Default : Yes
Forced : No

Text
ID : 3
Format : UTF-8
Codec ID : S_TEXT/UTF8
Codec ID/Info : UTF-8 Plain Text
Duration : 48 min 22 s
Bit rate : 78 b/s
Count of elements : 1096
Stream size : 27.8 KiB (0%)
Title : SDH
Language : English
Default : No
Forced : No





Ice S02E01


Ice S02E01


Ice S02E01


Ice S02E01


Ice S02E01

All episodes