Featured TV Shows


Ice S02E01

Posted By: Tavaz
1080p (FullHD) / HDTV IMDb
Ice S02E01

Ice S02E01
HDTV | MKV | 1920x1080 | French / English | H264 @ 6559 kbps | E-AC-3 @ 96 kbps | 47 min 9 s | 2.22 GiB
Subtitles: French
Genre: Crime, Drama

A diamond dealer navigates the culturally diverse and treacherous world of the diamond business.

7bb523eac423478db6bf06a8c70873b0.mkv (2.2 GB)



General
Unique ID : 116423347135216821571654997440081794853 (0x5796523028BE6E20C0C958E5D4099725)
Complete name : ./7bb523eac423478db6bf06a8c70873b0.mkv
Format : Matroska
Format version : Version 4 / Version 2
File size : 2.22 GiB
Duration : 47 min 9 s
Overall bit rate : 6 754 kb/s
Encoded date : UTC 2018-09-08 12:03:42
Writing application : mkvmerge v26.0.0 ('In The Game') 32-bit
Writing library : libebml v1.3.6 + libmatroska v1.4.9

Video
ID : 1
Format : AVC
Format/Info : Advanced Video Codec
Format profile : High@L4.1
Format settings : CABAC / 4 Ref Frames
Format settings, CABAC : Yes
Format settings, RefFrames : 4 frames
Codec ID : V_MPEG4/ISO/AVC
Duration : 47 min 9 s
Bit rate : 6 560 kb/s
Width : 1 920 pixels
Height : 1 080 pixels
Display aspect ratio : 16:9
Frame rate mode : Constant
Frame rate : 25.000 FPS
Color space : YUV
Chroma subsampling : 4:2:0
Bit depth : 8 bits
Scan type : Progressive
Bits/(Pixel*Frame) : 0.127
Stream size : 2.16 GiB (97%)
Title : Ice 2016 S02E01
Writing library : x264 core 155 r2901 7d0ff22
Encoding settings : opencl=1 / cabac=1 / ref=4 / deblock=1:-2:-2 / analyse=0x3:0x133 / me=umh / subme=8 / psy=1 / psy_rd=1.00:0.00 / mixed_ref=1 / me_range=24 / chroma_me=1 / trellis=2 / 8x8dct=1 / cqm=0 / deadzone=21,11 / fast_pskip=0 / chroma_qp_offset=-2 / threads=24 / lookahead_threads=4 / sliced_threads=0 / nr=0 / decimate=1 / interlaced=0 / bluray_compat=0 / constrained_intra=0 / bframes=3 / b_pyramid=2 / b_adapt=2 / b_bias=0 / direct=3 / weightb=1 / open_gop=0 / weightp=2 / keyint=250 / keyint_min=25 / scenecut=40 / intra_refresh=0 / rc_lookahead=60 / rc=crf / mbtree=1 / crf=17.0 / qcomp=0.60 / qpmin=0 / qpmax=69 / qpstep=4 / ip_ratio=1.40 / aq=1:1.00
Language : French
Default : Yes
Forced : No
Color range : Limited
Matrix coefficients : BT.709

Audio #1
ID : 2
Format : E-AC-3
Format/Info : Enhanced Audio Coding 3
Format settings, Endianness : Big
Codec ID : A_EAC3
Duration : 47 min 9 s
Bit rate mode : Constant
Bit rate : 96.0 kb/s
Channel(s) : 2 channels
Channel positions : Front: L R
Sampling rate : 48.0 kHz
Frame rate : 187.500 FPS (256 SPF)
Compression mode : Lossy
Stream size : 32.4 MiB (1%)
Title : Français E-AC3 2.0
Language : French
Service kind : Complete Main
Default : Yes
Forced : No

Audio #2
ID : 3
Format : E-AC-3
Format/Info : Enhanced Audio Coding 3
Format settings, Endianness : Big
Codec ID : A_EAC3
Duration : 47 min 9 s
Bit rate mode : Constant
Bit rate : 96.0 kb/s
Channel(s) : 2 channels
Channel positions : Front: L R
Sampling rate : 48.0 kHz
Frame rate : 187.500 FPS (256 SPF)
Compression mode : Lossy
Stream size : 32.4 MiB (1%)
Title : Anglais E-AC3 2.0
Language : English
Service kind : Complete Main
Default : No
Forced : No

Text
ID : 5
Format : UTF-8
Codec ID : S_TEXT/UTF8
Codec ID/Info : UTF-8 Plain Text
Duration : 46 min 6 s
Bit rate : 71 b/s
Count of elements : 785
Stream size : 24.2 KiB (0%)
Title : Français
Language : French
Default : No
Forced : No





Ice S02E01


Ice S02E01


Ice S02E01


Ice S02E01


Ice S02E01

All episodes