Featured TV Shows


Ice S02E06

Posted By: Tavaz
720p (HD) / WEB-DL IMDb
Ice S02E06

Ice S02E06
WEB-DL | MKV | 1280x720 | English | H264 @ 4181 kbps | E-AC-3 @ 640 kbps | 50 min 37 s | 1.71 GiB
Subtitles: English
Genre: Crime, Drama


A diamond dealer navigates the culturally diverse and treacherous world of the diamond business.

075527a0aa074eba922f505ae93a2544.mkv (1.7 GB)



General
Unique ID : 175221848839868736634198045340130246264 (0x83D28024A524A4AA058C33D4D98A7E78)
Complete name : ./075527a0aa074eba922f505ae93a2544.mkv
Format : Matroska
Format version : Version 4 / Version 2
File size : 1.71 GiB
Duration : 50 min 37 s
Overall bit rate : 4 824 kb/s
Encoded date : UTC 2019-06-06 00:57:34
Writing application : mkvmerge v34.0.0 ('Sight and Seen') 64-bit
Writing library : libebml v1.3.7 + libmatroska v1.5.0

Video
ID : 1
Format : AVC
Format/Info : Advanced Video Codec
Format profile : High@L3.1
Format settings : CABAC / 4 Ref Frames
Format settings, CABAC : Yes
Format settings, RefFrames : 4 frames
Codec ID : V_MPEG4/ISO/AVC
Duration : 50 min 36 s
Bit rate mode : Constant
Bit rate : 4 182 kb/s
Nominal bit rate : 6 000 kb/s
Width : 1 280 pixels
Height : 720 pixels
Display aspect ratio : 16:9
Frame rate mode : Constant
Frame rate : 23.976 (24000/1001) FPS
Color space : YUV
Chroma subsampling : 4:2:0
Bit depth : 8 bits
Scan type : Progressive
Bits/(Pixel*Frame) : 0.189
Stream size : 1.48 GiB (87%)
Default : Yes
Forced : No
Color range : Limited
Color primaries : BT.709
Transfer characteristics : BT.709
Matrix coefficients : BT.709

Audio
ID : 2
Format : E-AC-3
Format/Info : Enhanced Audio Coding 3
Format settings, Endianness : Big
Codec ID : A_EAC3
Duration : 50 min 37 s
Bit rate mode : Constant
Bit rate : 640 kb/s
Channel(s) : 6 channels
Channel positions : Front: L C R, Side: L R, LFE
Sampling rate : 48.0 kHz
Frame rate : 187.500 FPS (256 SPF)
Compression mode : Lossy
Stream size : 232 MiB (13%)
Language : English
Service kind : Complete Main
Default : Yes
Forced : No

Text
ID : 3
Format : UTF-8
Codec ID : S_TEXT/UTF8
Codec ID/Info : UTF-8 Plain Text
Duration : 49 min 32 s
Bit rate : 71 b/s
Count of elements : 1021
Stream size : 25.8 KiB (0%)
Title : SDH
Language : English
Default : No
Forced : No





Ice S02E06


Ice S02E06


Ice S02E06


Ice S02E06


Ice S02E06

All episodes