Featured TV Shows


Ice S02E07

Posted By: Tavaz
720p (HD) / WEB-DL IMDb
Ice S02E07

Ice S02E07
WEB-DL | MKV | 1280x720 | English | H264 @ 4521 kbps | E-AC-3 @ 640 kbps | 51 min 41 s | 1.86 GiB
Subtitles: English
Genre: Crime, Drama


A diamond dealer navigates the culturally diverse and treacherous world of the diamond business.

b6cd196c16d84baf8f0b08398ed163b2.mkv (1.9 GB)



General
Unique ID : 40878258316117924553147301204712649041 (0x1EC0DDBDBEEB528BC8160297E3667151)
Complete name : ./b6cd196c16d84baf8f0b08398ed163b2.mkv
Format : Matroska
Format version : Version 4 / Version 2
File size : 1.86 GiB
Duration : 51 min 41 s
Overall bit rate : 5 164 kb/s
Encoded date : UTC 2019-06-06 01:05:41
Writing application : mkvmerge v34.0.0 ('Sight and Seen') 64-bit
Writing library : libebml v1.3.7 + libmatroska v1.5.0

Video
ID : 1
Format : AVC
Format/Info : Advanced Video Codec
Format profile : High@L3.1
Format settings : CABAC / 4 Ref Frames
Format settings, CABAC : Yes
Format settings, RefFrames : 4 frames
Codec ID : V_MPEG4/ISO/AVC
Duration : 51 min 40 s
Bit rate mode : Constant
Bit rate : 4 522 kb/s
Nominal bit rate : 6 000 kb/s
Width : 1 280 pixels
Height : 720 pixels
Display aspect ratio : 16:9
Frame rate mode : Constant
Frame rate : 23.976 (24000/1001) FPS
Color space : YUV
Chroma subsampling : 4:2:0
Bit depth : 8 bits
Scan type : Progressive
Bits/(Pixel*Frame) : 0.205
Stream size : 1.63 GiB (88%)
Default : Yes
Forced : No
Color range : Limited
Color primaries : BT.709
Transfer characteristics : BT.709
Matrix coefficients : BT.709

Audio
ID : 2
Format : E-AC-3
Format/Info : Enhanced Audio Coding 3
Format settings, Endianness : Big
Codec ID : A_EAC3
Duration : 51 min 41 s
Bit rate mode : Constant
Bit rate : 640 kb/s
Channel(s) : 6 channels
Channel positions : Front: L C R, Side: L R, LFE
Sampling rate : 48.0 kHz
Frame rate : 187.500 FPS (256 SPF)
Compression mode : Lossy
Stream size : 237 MiB (12%)
Language : English
Service kind : Complete Main
Default : Yes
Forced : No

Text
ID : 3
Format : UTF-8
Codec ID : S_TEXT/UTF8
Codec ID/Info : UTF-8 Plain Text
Duration : 50 min 35 s
Bit rate : 51 b/s
Count of elements : 866
Stream size : 19.2 KiB (0%)
Title : SDH
Language : English
Default : No
Forced : No





Ice S02E07


Ice S02E07


Ice S02E07


Ice S02E07


Ice S02E07

All episodes