Featured TV Shows


Knightfall S01E03

Posted By: Tavaz
SD / WEB-DL IMDb
Knightfall S01E03

Knightfall S01E03
WEB-DL | MKV | 720x406 | French | H264 @ 1071 kbps | AAC @ 159 kbps | 42 min 22 s | 374 MiB
Subtitles: French
Genre: Drame

Au Moyen Âge, l'ordre du Temple est l'ordre militaire le plus puissant, le plus riche et mystérieux. Parmi ses missions, la protection de la si précieuse relique du Christianisme - le Graal Saint - et la préservation d'immenses secrets jalousement gardés. De leurs relations complexes avec le Roi de France à la trahison qui va provoquer la chute des Templiers, focus sur cette fraternité légendaire de moines guerriers…

Knightfall.S01E03.FRENCH.LD.AMZN.WEB-DL.x264-FRATERNiTY.mkv (374.0 MB)



General
Unique ID : 173069677197099160916566911339692073556 (0x823401E3852B3FEDD3D58C1B3E4CA254)
Complete name : ./Knightfall.S01E03.FRENCH.LD.AMZN.WEB-DL.x264-FRATERNiTY.mkv
Format : Matroska
Format version : Version 4 / Version 2
File size : 374 MiB
Duration : 42 min 22 s
Overall bit rate : 1 234 kb/s
Movie name : Knightfall.S01E03.FRENCH.LD.AMZN.WEB-DL.x264-FRATERNiTY
Encoded date : UTC 2018-01-22 07:07:53
Writing application : mkvmerge v20.0.0 ('I Am The Sun') 64-bit
Writing library : libebml v1.3.5 + libmatroska v1.4.8

Video
ID : 1
Format : AVC
Format/Info : Advanced Video Codec
Format profile : High@L3.1
Format settings : CABAC / 5 Ref Frames
Format settings, CABAC : Yes
Format settings, RefFrames : 5 frames
Codec ID : V_MPEG4/ISO/AVC
Duration : 42 min 22 s
Bit rate : 1 072 kb/s
Width : 720 pixels
Height : 406 pixels
Display aspect ratio : 16:9
Frame rate mode : Constant
Frame rate : 23.976 (24000/1001) FPS
Color space : YUV
Chroma subsampling : 4:2:0
Bit depth : 8 bits
Scan type : Progressive
Bits/(Pixel*Frame) : 0.153
Stream size : 325 MiB (87%)
Title : Knightfall.S01E03.FRENCH.LD.AMZN.WEB-DL.x264-FRATERNiTY
Writing library : x264 core 152 r2851 ba24899
Encoding settings : cabac=1 / ref=5 / deblock=1:0:0 / analyse=0x3:0x113 / me=hex / subme=9 / psy=1 / psy_rd=1.00:0.00 / mixed_ref=1 / me_range=16 / chroma_me=1 / trellis=1 / 8x8dct=1 / cqm=0 / deadzone=21,11 / fast_pskip=1 / chroma_qp_offset=-2 / threads=12 / lookahead_threads=1 / sliced_threads=0 / nr=0 / decimate=1 / interlaced=0 / bluray_compat=0 / constrained_intra=0 / bframes=3 / b_pyramid=2 / b_adapt=1 / b_bias=0 / direct=1 / weightb=1 / open_gop=0 / weightp=2 / keyint=240 / keyint_min=24 / scenecut=40 / intra_refresh=0 / rc_lookahead=50 / rc=crf / mbtree=1 / crf=19.0 / qcomp=0.60 / qpmin=0 / qpmax=69 / qpstep=4 / ip_ratio=1.40 / aq=1:1.00
Language : French
Default : Yes
Forced : No
Color range : Limited
Matrix coefficients : BT.709

Audio
ID : 2
Format : AAC
Format/Info : Advanced Audio Codec
Format profile : LC
Codec ID : A_AAC-2
Duration : 42 min 22 s
Bit rate : 160 kb/s
Channel(s) : 2 channels
Channel positions : Front: L R
Sampling rate : 48.0 kHz
Frame rate : 46.875 FPS (1024 SPF)
Compression mode : Lossy
Delay relative to video : 20 ms
Stream size : 48.5 MiB (13%)
Title : Knightfall.S01E03.FRENCH.LD.AMZN.WEB-DL.x264-FRATERNiTY
Language : French
Default : Yes
Forced : No

Text
ID : 3
Format : UTF-8
Codec ID : S_TEXT/UTF8
Codec ID/Info : UTF-8 Plain Text
Duration : 1 s 700 ms
Bit rate : 65 b/s
Count of elements : 1
Stream size : 14.0 Bytes (0%)
Title : French.Forced
Language : French
Default : Yes
Forced : Yes





Knightfall S01E03


Knightfall S01E03


Knightfall S01E03


Knightfall S01E03


Knightfall S01E03

All episodes