Index
# A B C D E F G H I J K L M N O P Q R S T U V W Y Z
Tags
Language
Tags

Featured TV Shows


Life Sentence S01E12

Posted By: Tavaz
1080p (FullHD) / WEB-DL IMDb
Life Sentence S01E12

Life Sentence S01E12
WEB-DL | MKV | 1920x1080 | H264 @ 14019 kbps | E-AC-3 @ 640 kbps | 42 min 3 s | 4.39 GiB
Genre: Comedy, Drama

When Stella finds out her terminal cancer is cured, she's going to have to learn to live with all the choices she's made when she decided to "live like she was dying".

bd24626518d841b5990045b8a4106682.mkv (4.4 GB)



General
Unique ID : 136812818837382671978964978938417006168 (0x66ED30C1D2849A2877DF4BA49F7C4658)
Complete name : ./bd24626518d841b5990045b8a4106682.mkv
Format : Matroska
Format version : Version 4 / Version 2
File size : 4.39 GiB
Duration : 42 min 3 s
Overall bit rate : 15.0 Mb/s
Writing application : Lavf57.82.100
Writing library : Lavf57.82.100
ErrorDetectionType : Per level 1

Video
ID : 1
Format : AVC
Format/Info : Advanced Video Codec
Format profile : High@L4
Format settings : CABAC / 4 Ref Frames
Format settings, CABAC : Yes
Format settings, RefFrames : 4 frames
Codec ID : V_MPEG4/ISO/AVC
Duration : 42 min 3 s
Bit rate : 14.0 Mb/s
Width : 1 920 pixels
Height : 1 080 pixels
Display aspect ratio : 16:9
Frame rate mode : Constant
Frame rate : 23.976 (24000/1001) FPS
Color space : YUV
Chroma subsampling : 4:2:0
Bit depth : 8 bits
Scan type : Progressive
Bits/(Pixel*Frame) : 0.282
Stream size : 4.12 GiB (94%)
Default : Yes
Forced : No
Color range : Limited
Color primaries : BT.709
Transfer characteristics : BT.709
Matrix coefficients : BT.709

Audio
ID : 2
Format : E-AC-3
Format/Info : Enhanced Audio Coding 3
Format settings, Endianness : Big
Codec ID : A_EAC3
Duration : 42 min 3 s
Bit rate mode : Constant
Bit rate : 640 kb/s
Channel(s) : 6 channels
Channel positions : Front: L C R, Side: L R, LFE
Sampling rate : 48.0 kHz
Frame rate : 187.500 FPS (256 SPF)
Bit depth : 32 bits
Compression mode : Lossy
Stream size : 193 MiB (4%)
Service kind : Complete Main
Default : Yes
Forced : No

Text
ID : 3
Format : ASS
Codec ID : S_TEXT/ASS
Codec ID/Info : Advanced Sub Station Alpha
Duration : 41 min 44 s
Compression mode : Lossless
Writing library : Lavc57.106.101 ssa
Default : No
Forced : No





Life Sentence S01E12


Life Sentence S01E12


Life Sentence S01E12


Life Sentence S01E12


Life Sentence S01E12

All episodes