Index
# A B C D E F G H I J K L M N O P Q R S T U V W Y Z
Tags
Language
Tags

Featured TV Shows


Life Sentence S01E13

Posted By: Tavaz
720p (HD) / WEBRip IMDb
Life Sentence S01E13

Life Sentence S01E13
WEBRip | MKV | 1280x720 | English | H264 @ 3400 kbps | AAC @ 127 kbps | 42 min 5 s | 1.03 GiB
Genre: Comedy, Drama

When Stella finds out her terminal cancer is cured, she's going to have to learn to live with all the choices she's made when she decided to "live like she was dying".

1938f0fa42a840f8a646d71974add2d4.mkv (1.0 GB)



General
Unique ID : 326400214647242566624170412955510409791 (0xF58E650CA7C1D278D99C797261D28A3F)
Complete name : ./1938f0fa42a840f8a646d71974add2d4.mkv
Format : Matroska
Format version : Version 4 / Version 2
File size : 1.03 GiB
Duration : 42 min 5 s
Overall bit rate : 3 503 kb/s
Encoded date : UTC 2018-06-16 05:32:39
Writing application : mkvmerge v21.0.0 ('Tardigrades Will Inherit The Earth') 64-bit
Writing library : libebml v1.3.5 + libmatroska v1.4.8

Video
ID : 1
Format : AVC
Format/Info : Advanced Video Codec
Format profile : High@L3.1
Format settings : CABAC / 4 Ref Frames
Format settings, CABAC : Yes
Format settings, RefFrames : 4 frames
Codec ID : V_MPEG4/ISO/AVC
Duration : 42 min 5 s
Bit rate : 3 400 kb/s
Width : 1 280 pixels
Height : 720 pixels
Display aspect ratio : 16:9
Frame rate mode : Constant
Frame rate : 23.976 (24000/1001) FPS
Color space : YUV
Chroma subsampling : 4:2:0
Bit depth : 8 bits
Scan type : Progressive
Bits/(Pixel*Frame) : 0.154
Stream size : 1 014 MiB (96%)
Writing library : x264 core 148 r2708+13 38887fd
Encoding settings : cabac=1 / ref=3 / deblock=1:0:0 / analyse=0x3:0x113 / me=hex / subme=6 / psy=1 / psy_rd=1.00:0.00 / mixed_ref=0 / me_range=16 / chroma_me=1 / trellis=1 / 8x8dct=1 / cqm=0 / deadzone=21,11 / fast_pskip=1 / chroma_qp_offset=-2 / threads=6 / lookahead_threads=1 / sliced_threads=0 / nr=0 / decimate=1 / interlaced=0 / bluray_compat=0 / constrained_intra=0 / bframes=3 / b_pyramid=2 / b_adapt=1 / b_bias=0 / direct=1 / weightb=1 / open_gop=0 / weightp=2 / keyint=48 / keyint_min=4 / scenecut=0 / intra_refresh=0 / rc_lookahead=40 / rc=cbr / mbtree=1 / bitrate=3400 / ratetol=1.0 / qcomp=0.60 / qpmin=0 / qpmax=69 / qpstep=4 / vbv_maxrate=3400 / vbv_bufsize=17000 / nal_hrd=none / filler=0 / ip_ratio=1.40 / aq=1:1.00
Default : Yes
Forced : No

Audio
ID : 2
Format : AAC
Format/Info : Advanced Audio Codec
Format profile : Main
Codec ID : A_AAC-1
Duration : 42 min 5 s
Bit rate : 128 kb/s
Channel(s) : 2 channels
Channel positions : Front: L R
Sampling rate : 48.0 kHz
Frame rate : 46.875 FPS (1024 SPF)
Compression mode : Lossy
Delay relative to video : -83 ms
Stream size : 38.5 MiB (4%)
Default : Yes
Forced : No





Life Sentence S01E13


Life Sentence S01E13


Life Sentence S01E13


Life Sentence S01E13


Life Sentence S01E13

All episodes