Index
# A B C D E F G H I J K L M N O P Q R S T U V W Y Z
Tags
Language
Tags

Featured TV Shows


Life Sentence S01E13

Posted By: Tavaz
1080p (FullHD) / WEB-DL IMDb
Life Sentence S01E13

Life Sentence S01E13
WEB-DL | MKV | 1920x1080 | English | H264 @ 14065 kbps | E-AC-3 @ 640 kbps | 42 min 2 s | 4.32 GiB
Subtitles: English
Genre: Comedy, Drama

When Stella finds out her terminal cancer is cured, she's going to have to learn to live with all the choices she's made when she decided to "live like she was dying".

b060b211e5d44ed8a04ea7738db31acf.mkv (4.3 GB)



General
Unique ID : 304835899505827918295878362220367562534 (0xE555423A0C67EC7A77CD8C64DA1DC726)
Complete name : ./b060b211e5d44ed8a04ea7738db31acf.mkv
Format : Matroska
Format version : Version 4 / Version 2
File size : 4.32 GiB
Duration : 42 min 2 s
Overall bit rate : 14.7 Mb/s
Encoded date : UTC 2018-06-16 07:36:52
Writing application : mkvmerge v21.0.0 ('Tardigrades Will Inherit The Earth') 64-bit
Writing library : libebml v1.3.5 + libmatroska v1.4.8

Video
ID : 1
Format : AVC
Format/Info : Advanced Video Codec
Format profile : High@L4
Format settings : CABAC / 4 Ref Frames
Format settings, CABAC : Yes
Format settings, RefFrames : 4 frames
Codec ID : V_MPEG4/ISO/AVC
Duration : 42 min 2 s
Bit rate : 14.1 Mb/s
Width : 1 920 pixels
Height : 1 080 pixels
Display aspect ratio : 16:9
Frame rate mode : Constant
Frame rate : 23.976 (24000/1001) FPS
Color space : YUV
Chroma subsampling : 4:2:0
Bit depth : 8 bits
Scan type : Progressive
Bits/(Pixel*Frame) : 0.283
Stream size : 4.13 GiB (96%)
Default : Yes
Forced : No
Color range : Limited
Color primaries : BT.709
Transfer characteristics : BT.709
Matrix coefficients : BT.709

Audio
ID : 2
Format : E-AC-3
Format/Info : Enhanced Audio Coding 3
Format settings, Endianness : Big
Codec ID : A_EAC3
Duration : 42 min 2 s
Bit rate mode : Constant
Bit rate : 640 kb/s
Channel(s) : 6 channels
Channel positions : Front: L C R, Side: L R, LFE
Sampling rate : 48.0 kHz
Frame rate : 187.500 FPS (256 SPF)
Compression mode : Lossy
Stream size : 192 MiB (4%)
Language : English
Service kind : Complete Main
Default : Yes
Forced : No

Text #1
ID : 3
Format : UTF-8
Codec ID : S_TEXT/UTF8
Codec ID/Info : UTF-8 Plain Text
Duration : 41 min 50 s
Bit rate : 92 b/s
Count of elements : 1093
Stream size : 28.2 KiB (0%)
Language : English
Default : No
Forced : No

Text #2
ID : 4
Format : UTF-8
Codec ID : S_TEXT/UTF8
Codec ID/Info : UTF-8 Plain Text
Duration : 41 min 50 s
Bit rate : 96 b/s
Count of elements : 1154
Stream size : 29.4 KiB (0%)
Title : SDH
Language : English
Default : No
Forced : No





Life Sentence S01E13


Life Sentence S01E13


Life Sentence S01E13


Life Sentence S01E13


Life Sentence S01E13

All episodes