Featured TV Shows


Marvel's Cloak & Dagger S01E03

Posted By: Tavaz
SD / WEBRip IMDb
Marvel's Cloak & Dagger S01E03

Marvel's Cloak & Dagger S01E03
WEBRip | MKV | 720x404 | German | H264 @ 773 kbps | AC-3 @ 384 kbps | 38 min 41 s | 321 MiB
Genre: Drama

Two teenagers from very different backgrounds awaken to newly acquired superpowers which mysteriously link them to one another.

marvels.cloak.and.dagger.s01e03.german.dubbed.webrip.x264-tvnation.sample.mkv (7.9 MB)
Marvels.Cloak.and.Dagger.S01E03.German.DUBBED.WebRip.x264-TVNATiON.mkv (320.8 MB)



General
Unique ID : 172372087784034114527773286448208615788 (0x81ADA813443198FC91A6B7D9D335196C)
Complete name : ./Marvels.Cloak.and.Dagger.S01E03.German.DUBBED.WebRip.x264-TVNATiON.mkv
Format : Matroska
Format version : Version 4 / Version 2
File size : 321 MiB
Duration : 38 min 41 s
Overall bit rate : 1 159 kb/s
Encoded date : UTC 2018-06-27 11:17:28
Writing application : mkvmerge v8.3.0 ('Over the Horizon') 64bit
Writing library : libebml v1.3.1 + libmatroska v1.4.2

Video
ID : 1
Format : AVC
Format/Info : Advanced Video Codec
Format profile : High@L3.1
Format settings : CABAC / 9 Ref Frames
Format settings, CABAC : Yes
Format settings, RefFrames : 9 frames
Codec ID : V_MPEG4/ISO/AVC
Duration : 38 min 41 s
Bit rate : 774 kb/s
Width : 720 pixels
Height : 404 pixels
Display aspect ratio : 16:9
Frame rate mode : Constant
Frame rate : 25.000 FPS
Original frame rate : 23.976 (24000/1001) FPS
Color space : YUV
Chroma subsampling : 4:2:0
Bit depth : 8 bits
Scan type : Progressive
Bits/(Pixel*Frame) : 0.106
Stream size : 214 MiB (67%)
Writing library : x264 core 155 r2901 7d0ff22
Encoding settings : cabac=1 / ref=9 / deblock=1:-3:-3 / analyse=0x3:0x113 / me=umh / subme=8 / psy=1 / psy_rd=1.00:0.15 / mixed_ref=1 / me_range=16 / chroma_me=1 / trellis=2 / 8x8dct=1 / cqm=0 / deadzone=21,11 / fast_pskip=0 / chroma_qp_offset=-3 / threads=13 / lookahead_threads=2 / sliced_threads=0 / nr=0 / decimate=1 / interlaced=0 / bluray_compat=0 / constrained_intra=0 / bframes=3 / b_pyramid=2 / b_adapt=2 / b_bias=0 / direct=3 / weightb=1 / open_gop=0 / weightp=2 / keyint=240 / keyint_min=23 / scenecut=40 / intra_refresh=0 / rc_lookahead=40 / rc=crf / mbtree=1 / crf=19.0 / qcomp=0.60 / qpmin=0 / qpmax=69 / qpstep=4 / ip_ratio=1.40 / aq=3:0.90
Language : English
Default : Yes
Forced : No
Color range : Limited
Matrix coefficients : BT.709

Audio
ID : 2
Format : AC-3
Format/Info : Audio Coding 3
Format settings, Endianness : Big
Codec ID : A_AC3
Duration : 38 min 41 s
Bit rate mode : Constant
Bit rate : 384 kb/s
Channel(s) : 6 channels
Channel positions : Front: L C R, Side: L R, LFE
Sampling rate : 48.0 kHz
Frame rate : 31.250 FPS (1536 SPF)
Bit depth : 16 bits
Compression mode : Lossy
Stream size : 106 MiB (33%)
Language : German
Service kind : Complete Main
Default : Yes
Forced : No





Marvel's Cloak & Dagger S01E03


Marvel's Cloak & Dagger S01E03


Marvel's Cloak & Dagger S01E03


Marvel's Cloak & Dagger S01E03


Marvel's Cloak & Dagger S01E03

All episodes