Featured TV Shows


QI S15E12

Posted By: Tavaz
720p (HD) / HDTV IMDb
QI S15E12

QI S15E12
HDTV | MKV | 1280x720 | English | H264 @ 2689 kbps | AC-3 @ 192 kbps | 29 min 18 s | 617 MiB
Genre: Comedy

QI is a British comedy panel game television quiz show created and co-produced by John Lloyd, hosted by Stephen Fry, and featuring permanent panellist Alan Davies. Most of the questions are extremely obscure, making it unlikely that the correct answer will be given. To compensate, points are also awarded for interesting answers, regardless of whether they are right or even relate to the original question. Points are also deducted from a panellist who gives answers which are wrong, pathetically obvious, or obviously a joke. The show makes use of a loud siren and flashing lights, as a form of humiliation.

27a13469cdbb46a3ab38f2af727ae680.mkv (616.5 MB)



General
Unique ID : 0 (0x0)
Complete name : ./27a13469cdbb46a3ab38f2af727ae680.mkv
Format : Matroska
Format version : Version 4 / Version 2
File size : 617 MiB
Duration : 29 min 18 s
Overall bit rate : 2 940 kb/s
Encoded date : UTC 2010-02-22 21:41:29
Writing application : no_variable_data
Writing library : no_variable_data

Video
ID : 1
Format : AVC
Format/Info : Advanced Video Codec
Format profile : High@L4.1
Format settings : CABAC / 5 Ref Frames
Format settings, CABAC : Yes
Format settings, RefFrames : 5 frames
Codec ID : V_MPEG4/ISO/AVC
Duration : 29 min 18 s
Bit rate : 2 690 kb/s
Width : 1 280 pixels
Height : 720 pixels
Display aspect ratio : 16:9
Frame rate mode : Constant
Frame rate : 50.000 FPS
Color space : YUV
Chroma subsampling : 4:2:0
Bit depth : 8 bits
Scan type : Progressive
Bits/(Pixel*Frame) : 0.058
Stream size : 564 MiB (91%)
Writing library : x264 core 152 r2851 ba24899
Encoding settings : cabac=1 / ref=5 / deblock=1:0:0 / analyse=0x3:0x113 / me=hex / subme=8 / psy=1 / psy_rd=1.00:0.00 / mixed_ref=1 / me_range=16 / chroma_me=1 / trellis=2 / 8x8dct=1 / cqm=0 / deadzone=21,11 / fast_pskip=1 / chroma_qp_offset=-2 / threads=12 / lookahead_threads=2 / sliced_threads=0 / nr=0 / decimate=1 / interlaced=0 / bluray_compat=0 / constrained_intra=0 / bframes=3 / b_pyramid=2 / b_adapt=1 / b_bias=0 / direct=3 / weightb=1 / open_gop=0 / weightp=2 / keyint=250 / keyint_min=25 / scenecut=40 / intra_refresh=0 / rc_lookahead=50 / rc=crf / mbtree=1 / crf=20.0 / qcomp=0.60 / qpmin=0 / qpmax=69 / qpstep=4 / ip_ratio=1.40 / aq=1:1.00
Language : English
Default : Yes
Forced : No
Color range : Limited
Matrix coefficients : BT.709

Audio
ID : 2
Format : AC-3
Format/Info : Audio Coding 3
Format settings, Endianness : Big
Codec ID : A_AC3
Duration : 29 min 18 s
Bit rate mode : Constant
Bit rate : 192 kb/s
Channel(s) : 2 channels
Channel positions : Front: L R
Sampling rate : 48.0 kHz
Frame rate : 31.250 FPS (1536 SPF)
Bit depth : 16 bits
Compression mode : Lossy
Stream size : 40.3 MiB (7%)
Language : English
Service kind : Complete Main
Default : Yes
Forced : No





QI S15E12


QI S15E12


QI S15E12


QI S15E12


QI S15E12

All episodes