Index
# A B C D E F G H I J K L M N O P Q R S T U V W Y Z
Tags
Language
Tags

Featured TV Shows


The Dropout S01E01

Posted By: Tavaz
720p (HD) / WEBRip IMDb
The Dropout S01E01

The Dropout S01E01
WEB-DL | MKV | 1280x720 | English / Deutsch | H264 @ 2769 kbps | E-AC-3 @ 256 kbps | 50 min 13 s | 1.15 GiB
Subtitles: English, Deutsch
Genre: Drama


The story of Elizabeth Holmes, the enigmatic Stanford dropout who founded medical testing start-up Theranos. Lauded as a Steve Jobs for the next tech generation and once worth billions of dollars, the myth crumbled when it was revealed that none of the tech actually worked, putting thousands of people's health in grave danger.

the.dropout.s01e01.german.dl.720p.web.h264-wvf.mkv (1.2 GB)



General
Unique ID : 87796916233036420254293204536174963711 (0x420D122D0B15ECD7E80EFF6900F5EBFF)
Complete name : ./the.dropout.s01e01.german.dl.720p.web.h264-wvf.mkv
Format : Matroska
Format version : Version 4 / Version 2
File size : 1.15 GiB
Duration : 50 min 13 s
Overall bit rate mode : Variable
Overall bit rate : 3 284 kb/s
Encoded date : UTC 2022-04-15 21:27:56
Writing application : mkvmerge v51.0.0 ('I Wish') 64-bit
Writing library : libebml v1.4.0 + libmatroska v1.6.2

Video
ID : 1
Format : AVC
Format/Info : Advanced Video Codec
Format profile : High@L3.1
Format settings : CABAC / 4 Ref Frames
Format settings, CABAC : Yes
Format settings, RefFrames : 4 frames
Codec ID : V_MPEG4/ISO/AVC
Duration : 50 min 13 s
Bit rate mode : Variable
Bit rate : 2 770 kb/s
Maximum bit rate : 6 375 kb/s
Width : 1 280 pixels
Height : 720 pixels
Display aspect ratio : 16:9
Frame rate mode : Constant
Frame rate : 23.976 (24000/1001) FPS
Color space : YUV
Chroma subsampling : 4:2:0
Bit depth : 8 bits
Scan type : Progressive
Bits/(Pixel*Frame) : 0.125
Stream size : 995 MiB (84%)
Default : Yes
Forced : No
Color range : Limited
Color primaries : BT.709
Transfer characteristics : BT.709
Matrix coefficients : BT.709

Audio #1
ID : 2
Format : E-AC-3
Format/Info : Enhanced Audio Coding 3
Format settings, Endianness : Big
Codec ID : A_EAC3
Duration : 50 min 13 s
Bit rate mode : Constant
Bit rate : 256 kb/s
Channel(s) : 6 channels
Channel positions : Front: L C R, Side: L R, LFE
Sampling rate : 48.0 kHz
Frame rate : 187.500 FPS (256 SPF)
Compression mode : Lossy
Stream size : 92.0 MiB (8%)
Language : German
Service kind : Complete Main
Default : Yes
Forced : No

Audio #2
ID : 3
Format : E-AC-3
Format/Info : Enhanced Audio Coding 3
Format settings, Endianness : Big
Codec ID : A_EAC3
Duration : 50 min 13 s
Bit rate mode : Constant
Bit rate : 256 kb/s
Channel(s) : 6 channels
Channel positions : Front: L C R, Side: L R, LFE
Sampling rate : 48.0 kHz
Frame rate : 187.500 FPS (256 SPF)
Compression mode : Lossy
Stream size : 92.0 MiB (8%)
Language : English
Service kind : Complete Main
Default : No
Forced : No

Text #1
ID : 4
Format : UTF-8
Codec ID : S_TEXT/UTF8
Codec ID/Info : UTF-8 Plain Text
Duration : 49 min 53 s
Bit rate : 4 b/s
Count of elements : 47
Stream size : 1.60 KiB (0%)
Title : de_Forced
Language : German
Default : Yes
Forced : Yes

Text #2
ID : 5
Format : UTF-8
Codec ID : S_TEXT/UTF8
Codec ID/Info : UTF-8 Plain Text
Duration : 50 min 1 s
Bit rate : 63 b/s
Count of elements : 561
Stream size : 23.3 KiB (0%)
Title : de_Full
Language : German
Default : No
Forced : No

Text #3
ID : 6
Format : UTF-8
Codec ID : S_TEXT/UTF8
Codec ID/Info : UTF-8 Plain Text
Duration : 50 min 5 s
Bit rate : 66 b/s
Count of elements : 708
Stream size : 24.5 KiB (0%)
Title : en_Full
Language : English
Default : No
Forced : No





The Dropout S01E01


The Dropout S01E01


The Dropout S01E01


The Dropout S01E01


The Dropout S01E01

All episodes