Index
# A B C D E F G H I J K L M N O P Q R S T U V W Y Z
Tags
Language
Tags

Featured TV Shows


The Dropout S01E01

Posted By: Tavaz
1080p (FullHD) / WEB-DL IMDb
The Dropout S01E01

The Dropout S01E01
WEB-DL | MKV | 1920x1080 | English | H264 @ 5719 kbps | E-AC-3 @ 256 kbps | 50 min 13 s | 2.10 GiB
Subtitles: 中文, Español, Português, English
Genre: Drama


The story of Elizabeth Holmes, the enigmatic Stanford dropout who founded medical testing start-up Theranos. Lauded as a Steve Jobs for the next tech generation and once worth billions of dollars, the myth crumbled when it was revealed that none of the tech actually worked, putting thousands of people's health in grave danger.

3ef073b19a7e41c6b52d2c2242b819fd.mkv (2.1 GB)



General
Unique ID : 195620453504674205240182522140826982772 (0x932B210080C97A7FA47389419D82D974)
Complete name : ./3ef073b19a7e41c6b52d2c2242b819fd.mkv
Format : Matroska
Format version : Version 4 / Version 2
File size : 2.10 GiB
Duration : 50 min 13 s
Overall bit rate mode : Variable
Overall bit rate : 5 978 kb/s
Writing application : mkvmerge v65.0.0 ('Too Much') 64-bit
Writing library : libebml v1.4.2 + libmatroska v1.6.4

Video
ID : 1
Format : AVC
Format/Info : Advanced Video Codec
Format profile : High@L4
Format settings : CABAC / 4 Ref Frames
Format settings, CABAC : Yes
Format settings, RefFrames : 4 frames
Codec ID : V_MPEG4/ISO/AVC
Duration : 50 min 13 s
Bit rate mode : Variable
Bit rate : 5 719 kb/s
Maximum bit rate : 12.7 Mb/s
Width : 1 920 pixels
Height : 1 080 pixels
Display aspect ratio : 16:9
Frame rate mode : Constant
Frame rate : 23.976 (24000/1001) FPS
Color space : YUV
Chroma subsampling : 4:2:0
Bit depth : 8 bits
Scan type : Progressive
Bits/(Pixel*Frame) : 0.115
Stream size : 2.01 GiB (96%)
Default : Yes
Forced : No
Color range : Limited
Color primaries : BT.709
Transfer characteristics : BT.709
Matrix coefficients : BT.709

Audio
ID : 2
Format : E-AC-3
Format/Info : Enhanced Audio Coding 3
Format settings, Endianness : Big
Codec ID : A_EAC3
Duration : 50 min 13 s
Bit rate mode : Constant
Bit rate : 256 kb/s
Channel(s) : 6 channels
Channel positions : Front: L C R, Side: L R, LFE
Sampling rate : 48.0 kHz
Frame rate : 187.500 FPS (256 SPF)
Compression mode : Lossy
Stream size : 92.0 MiB (4%)
Language : English
Service kind : Complete Main
Default : Yes
Forced : No

Text #1
ID : 3
Format : UTF-8
Codec ID : S_TEXT/UTF8
Codec ID/Info : UTF-8 Plain Text
Duration : 48 min 52 s
Bit rate : 64 b/s
Count of elements : 645
Stream size : 23.1 KiB (0%)
Language : English
Default : No
Forced : No

Text #2
ID : 4
Format : UTF-8
Codec ID : S_TEXT/UTF8
Codec ID/Info : UTF-8 Plain Text
Duration : 50 min 5 s
Bit rate : 69 b/s
Count of elements : 708
Stream size : 25.4 KiB (0%)
Title : SDH
Language : English
Default : No
Forced : No

Text #3
ID : 5
Format : UTF-8
Codec ID : S_TEXT/UTF8
Codec ID/Info : UTF-8 Plain Text
Duration : 50 min 1 s
Bit rate : 60 b/s
Count of elements : 562
Stream size : 22.1 KiB (0%)
Title : Latin American
Language : Spanish
Default : No
Forced : No

Text #4
ID : 6
Format : UTF-8
Codec ID : S_TEXT/UTF8
Codec ID/Info : UTF-8 Plain Text
Duration : 50 min 1 s
Bit rate : 56 b/s
Count of elements : 550
Stream size : 20.6 KiB (0%)
Title : Brazilian
Language : Portuguese
Default : No
Forced : No

Text #5
ID : 7
Format : UTF-8
Codec ID : S_TEXT/UTF8
Codec ID/Info : UTF-8 Plain Text
Duration : 50 min 1 s
Bit rate : 53 b/s
Count of elements : 565
Stream size : 19.6 KiB (0%)
Title : Simplified
Language : Chinese
Default : No
Forced : No

Text #6
ID : 8
Format : UTF-8
Codec ID : S_TEXT/UTF8
Codec ID/Info : UTF-8 Plain Text
Duration : 50 min 1 s
Bit rate : 53 b/s
Count of elements : 564
Stream size : 19.8 KiB (0%)
Title : Traditional
Language : Chinese
Default : No
Forced : No

Menu
00:49:18.292 : en:Credits





The Dropout S01E01


The Dropout S01E01


The Dropout S01E01


The Dropout S01E01


The Dropout S01E01

All episodes