Index
# A B C D E F G H I J K L M N O P Q R S T U V W Y Z
Tags
Language
Tags

Featured TV Shows


The Dropout S01E02

Posted By: Tavaz
720p (HD) / WEBRip IMDb
The Dropout S01E02

The Dropout S01E02
WEBRip | MKV | 1280x720 | English | H264 @ 1524 kbps | E-AC-3 @ 256 kbps | 51 min 27 s | 656 MiB
Subtitles: Español, English
Genre: Drama


The story of Elizabeth Holmes, the enigmatic Stanford dropout who founded medical testing start-up Theranos. Lauded as a Steve Jobs for the next tech generation and once worth billions of dollars, the myth crumbled when it was revealed that none of the tech actually worked, putting thousands of people's health in grave danger.

6f8e6f5e98e44983be899bc93bd865b3.mkv (656.0 MB)



General
Unique ID : 274320270912122699164715380582913465398 (0xCE602993B72227738ADB8C2068B4DC36)
Complete name : ./6f8e6f5e98e44983be899bc93bd865b3.mkv
Format : Matroska
Format version : Version 4 / Version 2
File size : 656 MiB
Duration : 51 min 27 s
Overall bit rate : 1 782 kb/s
Writing application : mkvmerge v65.0.0 ('Too Much') 64-bit
Writing library : libebml v1.4.2 + libmatroska v1.6.4

Video
ID : 1
Format : AVC
Format/Info : Advanced Video Codec
Format profile : High@L3.1
Format settings : CABAC / 5 Ref Frames
Format settings, CABAC : Yes
Format settings, RefFrames : 5 frames
Codec ID : V_MPEG4/ISO/AVC
Duration : 51 min 27 s
Bit rate : 1 524 kb/s
Width : 1 280 pixels
Height : 720 pixels
Display aspect ratio : 16:9
Frame rate mode : Constant
Frame rate : 23.976 (24000/1001) FPS
Color space : YUV
Chroma subsampling : 4:2:0
Bit depth : 8 bits
Scan type : Progressive
Bits/(Pixel*Frame) : 0.069
Stream size : 561 MiB (86%)
Default : Yes
Forced : No

Audio
ID : 2
Format : E-AC-3
Format/Info : Enhanced Audio Coding 3
Format settings, Endianness : Big
Codec ID : A_EAC3
Duration : 51 min 27 s
Bit rate mode : Constant
Bit rate : 256 kb/s
Channel(s) : 6 channels
Channel positions : Front: L C R, Side: L R, LFE
Sampling rate : 48.0 kHz
Frame rate : 187.500 FPS (256 SPF)
Compression mode : Lossy
Stream size : 94.2 MiB (14%)
Language : English
Service kind : Complete Main
Default : Yes
Forced : No

Text #1
ID : 3
Format : UTF-8
Codec ID : S_TEXT/UTF8
Codec ID/Info : UTF-8 Plain Text
Duration : 51 min 6 s
Bit rate : 68 b/s
Count of elements : 891
Stream size : 25.8 KiB (0%)
Language : English
Default : No
Forced : No

Text #2
ID : 4
Format : UTF-8
Codec ID : S_TEXT/UTF8
Codec ID/Info : UTF-8 Plain Text
Duration : 51 min 8 s
Bit rate : 84 b/s
Count of elements : 1049
Stream size : 31.5 KiB (0%)
Title : SDH
Language : English
Default : No
Forced : No

Text #3
ID : 5
Format : UTF-8
Codec ID : S_TEXT/UTF8
Codec ID/Info : UTF-8 Plain Text
Duration : 50 min 46 s
Bit rate : 80 b/s
Count of elements : 1031
Stream size : 30.1 KiB (0%)
Title : SDH
Language : Spanish
Default : No
Forced : No

Menu
00:14:44.000 : en:Chapter 1
00:24:04.000 : en:Chapter 2
00:34:08.000 : en:Chapter 3
00:40:59.000 : en:Chapter 4
00:00:00.000 : en:Credits





The Dropout S01E02


The Dropout S01E02


The Dropout S01E02


The Dropout S01E02


The Dropout S01E02

All episodes