Index
# A B C D E F G H I J K L M N O P Q R S T U V W Y Z
Tags
Language
Tags

Featured TV Shows


The Dropout S01E03

Posted By: Tavaz
2160p (4k UHD) / WEB-DL IMDb
The Dropout S01E03

The Dropout S01E03
WEB-DL | MKV | 3840x2160 | English | H265 @ 14179 kbps | E-AC-3 @ 256 kbps | 55 min 26 s | 5.70 GiB
Subtitles: Español, English
Genre: Drama


The story of Elizabeth Holmes, the enigmatic Stanford dropout who founded medical testing start-up Theranos. Lauded as a Steve Jobs for the next tech generation and once worth billions of dollars, the myth crumbled when it was revealed that none of the tech actually worked, putting thousands of people's health in grave danger.

d5a451c4c489443581e71fbe7ff58475.mkv (5.7 GB)



General
Unique ID : 62388526391515471529657858804472138488 (0x2EEF97D6794E8043EAA2E6CB19F0CAF8)
Complete name : ./d5a451c4c489443581e71fbe7ff58475.mkv
Format : Matroska
Format version : Version 4 / Version 2
File size : 5.70 GiB
Duration : 55 min 26 s
Overall bit rate : 14.7 Mb/s
Writing application : mkvmerge v59.0.0 ('Shining Star') 64-bit
Writing library : libebml v1.4.2 + libmatroska v1.6.4

Video
ID : 1
Format : HEVC
Format/Info : High Efficiency Video Coding
Format profile : Main 10@L5.1@Main
Codec ID : V_MPEGH/ISO/HEVC
Duration : 55 min 26 s
Bit rate : 14.2 Mb/s
Width : 3 840 pixels
Height : 2 160 pixels
Display aspect ratio : 16:9
Frame rate mode : Constant
Frame rate : 23.976 (24000/1001) FPS
Color space : YUV
Chroma subsampling : 4:2:0 (Type 2)
Bit depth : 10 bits
Bits/(Pixel*Frame) : 0.071
Stream size : 5.49 GiB (96%)
Default : Yes
Forced : No
Color range : Limited
Color primaries : BT.2020
Transfer characteristics : PQ
Matrix coefficients : BT.2020 non-constant
Mastering display color primaries : R: x=0.680000 y=0.320000, G: x=0.265000 y=0.690000, B: x=0.150000 y=0.060000, White point: x=0.312700 y=0.329000
Mastering display luminance : min: 0.0001 cd/m2, max: 1000.0000 cd/m2
Maximum Content Light Level : 1163 cd/m2
Maximum Frame-Average Light Level : 164 cd/m2

Audio
ID : 2
Format : E-AC-3
Format/Info : Enhanced Audio Coding 3
Format settings, Endianness : Big
Codec ID : A_EAC3
Duration : 55 min 26 s
Bit rate mode : Constant
Bit rate : 256 kb/s
Channel(s) : 6 channels
Channel positions : Front: L C R, Side: L R, LFE
Sampling rate : 48.0 kHz
Frame rate : 187.500 FPS (256 SPF)
Compression mode : Lossy
Stream size : 102 MiB (2%)
Language : English
Service kind : Complete Main
Default : Yes
Forced : No

Text #1
ID : 3
Format : UTF-8
Codec ID : S_TEXT/UTF8
Codec ID/Info : UTF-8 Plain Text
Title : English
Language : English
Default : No
Forced : No

Text #2
ID : 4
Format : UTF-8
Codec ID : S_TEXT/UTF8
Codec ID/Info : UTF-8 Plain Text
Title : Spanish
Language : Spanish
Default : No
Forced : No





The Dropout S01E03


The Dropout S01E03


The Dropout S01E03


The Dropout S01E03


The Dropout S01E03

All episodes