Index
# A B C D E F G H I J K L M N O P Q R S T U V W Y Z
Tags
Language
Tags

Featured TV Shows


The Dropout S01E03

Posted By: Tavaz
2160p (4k UHD) / WEBRip IMDb
The Dropout S01E03

The Dropout S01E03
WEB-DL | MKV | 3840x2160 | English / Deutsch | H265 @ 15490 kbps | E-AC-3 @ 256 kbps | 55 min 26 s | 6.20 GiB
Subtitles: English, Deutsch
Genre: Drama


„The Dropout“ zeichnet die skandalträchtige Geschichte um die Unternehmerin Elizabeth Holmes und ihrer Firma nach. Holmes brach 2003 ihr Studium an der Stanford University ab („drop out“), um das Biotechnologie-Unternehmen Theranos zu gründen. Die Firma versprach, das Verfahren für Blutuntersuchungen unter Verwendung von Gentests zu revolutionieren. Im vergangenen Jahr wurden Holmes und ihr Geschäftsführer schließlich von einer Grand Jury des Betruges angeklagt. Einst wurde Holmes als eine Art Wunderkind gehandelt, nun drohen ihr bis zu 20 Jahre Gefängnis. Das Verfahren gegen sie beginnt voraussichtlich im Juli 2021.

the.dropout.s01e03.german.dubbed.dl.2160p.web.h265-rile.mkv (6.2 GB)



General
Unique ID : 204390904334667140967612272308959205565 (0x99C4419CFF893EBCF82F3705FE8E58BD)
Complete name : ./the.dropout.s01e03.german.dubbed.dl.2160p.web.h265-rile.mkv
Format : Matroska
Format version : Version 4 / Version 2
File size : 6.20 GiB
Duration : 55 min 26 s
Overall bit rate : 16.0 Mb/s
Encoded date : UTC 2022-04-15 23:26:50
Writing application : mkvmerge v66.0.0 ('Josie') 64-bit
Writing library : libebml v1.4.2 + libmatroska v1.6.4 / Lavf58.35.100

Video
ID : 1
Format : HEVC
Format/Info : High Efficiency Video Coding
Format profile : Main 10@L5.1@Main
Codec ID : V_MPEGH/ISO/HEVC
Duration : 55 min 26 s
Bit rate : 15.5 Mb/s
Width : 3 840 pixels
Height : 2 160 pixels
Display aspect ratio : 16:9
Frame rate mode : Constant
Frame rate : 23.976 (24000/1001) FPS
Color space : YUV
Chroma subsampling : 4:2:0
Bit depth : 10 bits
Bits/(Pixel*Frame) : 0.078
Stream size : 6.00 GiB (97%)
Default : Yes
Forced : No

Audio #1
ID : 2
Format : E-AC-3
Format/Info : Enhanced Audio Coding 3
Format settings, Endianness : Big
Codec ID : A_EAC3
Duration : 55 min 26 s
Bit rate mode : Constant
Bit rate : 256 kb/s
Channel(s) : 6 channels
Channel positions : Front: L C R, Side: L R, LFE
Sampling rate : 48.0 kHz
Frame rate : 187.500 FPS (256 SPF)
Compression mode : Lossy
Stream size : 102 MiB (2%)
Language : German
Service kind : Complete Main
Default : Yes
Forced : No

Audio #2
ID : 3
Format : E-AC-3
Format/Info : Enhanced Audio Coding 3
Format settings, Endianness : Big
Codec ID : A_EAC3
Duration : 55 min 26 s
Bit rate mode : Constant
Bit rate : 256 kb/s
Channel(s) : 6 channels
Channel positions : Front: L C R, Side: L R, LFE
Sampling rate : 48.0 kHz
Frame rate : 187.500 FPS (256 SPF)
Compression mode : Lossy
Stream size : 102 MiB (2%)
Language : English
Service kind : Complete Main
Default : No
Forced : No

Text #1
ID : 4
Format : UTF-8
Codec ID : S_TEXT/UTF8
Codec ID/Info : UTF-8 Plain Text
Duration : 54 min 0 s
Bit rate : 0 b/s
Count of elements : 14
Stream size : 349 Bytes (0%)
Title : German_Forced
Language : German
Default : Yes
Forced : Yes

Text #2
ID : 5
Format : UTF-8
Codec ID : S_TEXT/UTF8
Codec ID/Info : UTF-8 Plain Text
Duration : 54 min 3 s
Bit rate : 64 b/s
Count of elements : 660
Stream size : 25.7 KiB (0%)
Title : German
Language : German
Default : No
Forced : No

Text #3
ID : 6
Format : UTF-8
Codec ID : S_TEXT/UTF8
Codec ID/Info : UTF-8 Plain Text
Duration : 55 min 19 s
Bit rate : 72 b/s
Count of elements : 955
Stream size : 29.6 KiB (0%)
Title : English
Language : English
Default : No
Forced : No





The Dropout S01E03


The Dropout S01E03


The Dropout S01E03


The Dropout S01E03


The Dropout S01E03

All episodes