Index
# A B C D E F G H I J K L M N O P Q R S T U V W Y Z
Tags
Language
Tags

Featured TV Shows


The Dropout S01E03

Posted By: Tavaz
720p (HD) / WEBRip IMDb
The Dropout S01E03

The Dropout S01E03
WEBRip | MKV | 1280x720 | English | H264 @ 1477 kbps | E-AC-3 @ 256 kbps | 55 min 26 s | 688 MiB
Subtitles: Español, English
Genre: Drama


The story of Elizabeth Holmes, the enigmatic Stanford dropout who founded medical testing start-up Theranos. Lauded as a Steve Jobs for the next tech generation and once worth billions of dollars, the myth crumbled when it was revealed that none of the tech actually worked, putting thousands of people's health in grave danger.

05f6878933304c52bbf8a1215c7dbf27.mkv (688.1 MB)



General
Unique ID : 123733091956698124042423741443878482014 (0x5D16206ED3FDA7E8AD70E1DC84E4F05E)
Complete name : ./05f6878933304c52bbf8a1215c7dbf27.mkv
Format : Matroska
Format version : Version 4 / Version 2
File size : 688 MiB
Duration : 55 min 26 s
Overall bit rate : 1 735 kb/s
Writing application : mkvmerge v65.0.0 ('Too Much') 64-bit
Writing library : libebml v1.4.2 + libmatroska v1.6.4

Video
ID : 1
Format : AVC
Format/Info : Advanced Video Codec
Format profile : High@L3.1
Format settings : CABAC / 5 Ref Frames
Format settings, CABAC : Yes
Format settings, RefFrames : 5 frames
Codec ID : V_MPEG4/ISO/AVC
Duration : 55 min 26 s
Bit rate : 1 477 kb/s
Width : 1 280 pixels
Height : 720 pixels
Display aspect ratio : 16:9
Frame rate mode : Constant
Frame rate : 23.976 (24000/1001) FPS
Color space : YUV
Chroma subsampling : 4:2:0
Bit depth : 8 bits
Scan type : Progressive
Bits/(Pixel*Frame) : 0.067
Stream size : 586 MiB (85%)
Default : Yes
Forced : No

Audio
ID : 2
Format : E-AC-3
Format/Info : Enhanced Audio Coding 3
Format settings, Endianness : Big
Codec ID : A_EAC3
Duration : 55 min 26 s
Bit rate mode : Constant
Bit rate : 256 kb/s
Channel(s) : 6 channels
Channel positions : Front: L C R, Side: L R, LFE
Sampling rate : 48.0 kHz
Frame rate : 187.500 FPS (256 SPF)
Compression mode : Lossy
Stream size : 102 MiB (15%)
Language : English
Service kind : Complete Main
Default : Yes
Forced : No

Text #1
ID : 3
Format : UTF-8
Codec ID : S_TEXT/UTF8
Codec ID/Info : UTF-8 Plain Text
Duration : 55 min 18 s
Bit rate : 65 b/s
Count of elements : 851
Stream size : 26.4 KiB (0%)
Language : English
Default : No
Forced : No

Text #2
ID : 4
Format : UTF-8
Codec ID : S_TEXT/UTF8
Codec ID/Info : UTF-8 Plain Text
Duration : 55 min 19 s
Bit rate : 73 b/s
Count of elements : 955
Stream size : 29.7 KiB (0%)
Title : SDH
Language : English
Default : No
Forced : No

Text #3
ID : 5
Format : UTF-8
Codec ID : S_TEXT/UTF8
Codec ID/Info : UTF-8 Plain Text
Duration : 55 min 17 s
Bit rate : 72 b/s
Count of elements : 999
Stream size : 29.4 KiB (0%)
Title : SDH
Language : Spanish
Default : No
Forced : No

Menu
00:18:47.000 : en:Chapter 1
00:26:56.000 : en:Chapter 2
00:34:51.000 : en:Chapter 3
00:42:48.000 : en:Chapter 4
00:00:00.000 : en:Credits





The Dropout S01E03


The Dropout S01E03


The Dropout S01E03


The Dropout S01E03


The Dropout S01E03

All episodes