Index
# A B C D E F G H I J K L M N O P Q R S T U V W Y Z
Tags
Language
Tags

Featured TV Shows


The Dropout S01E06

Posted By: Tavaz
1080p (FullHD) / WEBRip IMDb
The Dropout S01E06

The Dropout S01E06
WEB-DL | MKV | 1920x1080 | English / Deutsch | H264 @ 5604 kbps | E-AC-3 @ 256 kbps | 48 min 57 s | 2.09 GiB
Subtitles: 中文, Français, Deutsch, Suomi, Español, Polski, Italiano, Ελληνικά, Türkçe, 日本語, Svenska, Dansk, English, Nederlands, 한국어, Português, Română
Genre: Drama


„The Dropout“ zeichnet die skandalträchtige Geschichte um die Unternehmerin Elizabeth Holmes und ihrer Firma nach. Holmes brach 2003 ihr Studium an der Stanford University ab („drop out“), um das Biotechnologie-Unternehmen Theranos zu gründen. Die Firma versprach, das Verfahren für Blutuntersuchungen unter Verwendung von Gentests zu revolutionieren. Im vergangenen Jahr wurden Holmes und ihr Geschäftsführer schließlich von einer Grand Jury des Betruges angeklagt. Einst wurde Holmes als eine Art Wunderkind gehandelt, nun drohen ihr bis zu 20 Jahre Gefängnis. Das Verfahren gegen sie beginnt voraussichtlich im Juli 2021.

the.dropout.s01e06.german.dl.1080p.web.h264-wayne.mkv (2.1 GB)



General
Unique ID : 157885263174311049917878999168448373940 (0x76C7987A0F5698D1019E599A660EA4B4)
Complete name : ./the.dropout.s01e06.german.dl.1080p.web.h264-wayne.mkv
Format : Matroska
Format version : Version 4 / Version 2
File size : 2.09 GiB
Duration : 48 min 57 s
Overall bit rate mode : Variable
Overall bit rate : 6 122 kb/s
Encoded date : UTC 2022-04-19 06:13:30
Writing application : mkvmerge v66.0.0 ('Josie') 64-bit
Writing library : libebml v1.4.2 + libmatroska v1.6.4

Video
ID : 1
Format : AVC
Format/Info : Advanced Video Codec
Format profile : High@L4
Format settings : CABAC / 4 Ref Frames
Format settings, CABAC : Yes
Format settings, RefFrames : 4 frames
Codec ID : V_MPEG4/ISO/AVC
Duration : 48 min 57 s
Bit rate mode : Variable
Bit rate : 5 604 kb/s
Maximum bit rate : 12.7 Mb/s
Width : 1 920 pixels
Height : 1 080 pixels
Display aspect ratio : 16:9
Frame rate mode : Constant
Frame rate : 23.976 (24000/1001) FPS
Color space : YUV
Chroma subsampling : 4:2:0
Bit depth : 8 bits
Scan type : Progressive
Bits/(Pixel*Frame) : 0.113
Stream size : 1.92 GiB (92%)
Default : Yes
Forced : No
Color range : Limited
Color primaries : BT.709
Transfer characteristics : BT.709
Matrix coefficients : BT.709

Audio #1
ID : 2
Format : E-AC-3
Format/Info : Enhanced Audio Coding 3
Format settings, Endianness : Big
Codec ID : A_EAC3
Duration : 48 min 57 s
Bit rate mode : Constant
Bit rate : 256 kb/s
Channel(s) : 6 channels
Channel positions : Front: L C R, Side: L R, LFE
Sampling rate : 48.0 kHz
Frame rate : 187.500 FPS (256 SPF)
Compression mode : Lossy
Stream size : 89.7 MiB (4%)
Language : German
Service kind : Complete Main
Default : Yes
Forced : No

Audio #2
ID : 3
Format : E-AC-3
Format/Info : Enhanced Audio Coding 3
Format settings, Endianness : Big
Codec ID : A_EAC3
Duration : 48 min 57 s
Bit rate mode : Constant
Bit rate : 256 kb/s
Channel(s) : 6 channels
Channel positions : Front: L C R, Side: L R, LFE
Sampling rate : 48.0 kHz
Frame rate : 187.500 FPS (256 SPF)
Compression mode : Lossy
Stream size : 89.7 MiB (4%)
Language : English
Service kind : Complete Main
Default : No
Forced : No

Text #1
ID : 4
Format : UTF-8
Codec ID : S_TEXT/UTF8
Codec ID/Info : UTF-8 Plain Text
Duration : 48 min 43 s
Bit rate : 2 b/s
Count of elements : 32
Stream size : 826 Bytes (0%)
Title : German Forced
Language : German
Default : Yes
Forced : Yes

Text #2
ID : 5
Format : UTF-8
Codec ID : S_TEXT/UTF8
Codec ID/Info : UTF-8 Plain Text
Duration : 48 min 45 s
Bit rate : 62 b/s
Count of elements : 712
Stream size : 22.2 KiB (0%)
Title : Chinese (Simplified)
Language : Chinese
Default : No
Forced : No

Text #3
ID : 6
Format : UTF-8
Codec ID : S_TEXT/UTF8
Codec ID/Info : UTF-8 Plain Text
Duration : 48 min 45 s
Bit rate : 62 b/s
Count of elements : 712
Stream size : 22.1 KiB (0%)
Title : Chinese (Traditional)
Language : Chinese
Default : No
Forced : No

Text #4
ID : 7
Format : UTF-8
Codec ID : S_TEXT/UTF8
Codec ID/Info : UTF-8 Plain Text
Duration : 48 min 45 s
Bit rate : 75 b/s
Count of elements : 703
Stream size : 26.9 KiB (0%)
Title : Dansk
Language : Danish
Default : No
Forced : No

Text #5
ID : 8
Format : UTF-8
Codec ID : S_TEXT/UTF8
Codec ID/Info : UTF-8 Plain Text
Duration : 48 min 45 s
Bit rate : 77 b/s
Count of elements : 705
Stream size : 27.6 KiB (0%)
Title : Deutsch
Language : German
Default : No
Forced : No

Text #6
ID : 9
Format : UTF-8
Codec ID : S_TEXT/UTF8
Codec ID/Info : UTF-8 Plain Text
Duration : 48 min 45 s
Bit rate : 79 b/s
Count of elements : 826
Stream size : 28.5 KiB (0%)
Title : English [CC]
Language : English
Default : No
Forced : No

Text #7
ID : 10
Format : UTF-8
Codec ID : S_TEXT/UTF8
Codec ID/Info : UTF-8 Plain Text
Duration : 48 min 45 s
Bit rate : 68 b/s
Count of elements : 700
Stream size : 24.4 KiB (0%)
Title : Español
Language : Spanish
Default : No
Forced : No

Text #8
ID : 11
Format : UTF-8
Codec ID : S_TEXT/UTF8
Codec ID/Info : UTF-8 Plain Text
Duration : 48 min 45 s
Bit rate : 69 b/s
Count of elements : 700
Stream size : 24.8 KiB (0%)
Title : Español (Latinoamericano)
Language : Spanish
Default : No
Forced : No

Text #9
ID : 12
Format : UTF-8
Codec ID : S_TEXT/UTF8
Codec ID/Info : UTF-8 Plain Text
Duration : 48 min 45 s
Bit rate : 71 b/s
Count of elements : 703
Stream size : 25.5 KiB (0%)
Title : Français
Language : French
Default : No
Forced : No

Text #10
ID : 13
Format : UTF-8
Codec ID : S_TEXT/UTF8
Codec ID/Info : UTF-8 Plain Text
Duration : 48 min 45 s
Bit rate : 122 b/s
Count of elements : 700
Stream size : 43.7 KiB (0%)
Title : Greek
Language : Greek
Default : No
Forced : No

Text #11
ID : 14
Format : UTF-8
Codec ID : S_TEXT/UTF8
Codec ID/Info : UTF-8 Plain Text
Duration : 48 min 45 s
Bit rate : 74 b/s
Count of elements : 703
Stream size : 26.6 KiB (0%)
Title : Italiano
Language : Italian
Default : No
Forced : No

Text #12
ID : 15
Format : UTF-8
Codec ID : S_TEXT/UTF8
Codec ID/Info : UTF-8 Plain Text
Duration : 48 min 45 s
Bit rate : 58 b/s
Count of elements : 724
Stream size : 20.8 KiB (0%)
Title : Japanese
Language : Japanese
Default : No
Forced : No

Text #13
ID : 16
Format : UTF-8
Codec ID : S_TEXT/UTF8
Codec ID/Info : UTF-8 Plain Text
Duration : 48 min 45 s
Bit rate : 85 b/s
Count of elements : 713
Stream size : 30.6 KiB (0%)
Title : Korean
Language : Korean
Default : No
Forced : No

Text #14
ID : 17
Format : UTF-8
Codec ID : S_TEXT/UTF8
Codec ID/Info : UTF-8 Plain Text
Duration : 48 min 45 s
Bit rate : 70 b/s
Count of elements : 675
Stream size : 25.3 KiB (0%)
Title : Nederlands
Language : Dutch
Default : No
Forced : No

Text #15
ID : 18
Format : UTF-8
Codec ID : S_TEXT/UTF8
Codec ID/Info : UTF-8 Plain Text
Duration : 48 min 45 s
Bit rate : 71 b/s
Count of elements : 705
Stream size : 25.5 KiB (0%)
Title : Norsk
Language : Norwegian
Default : No
Forced : No

Text #16
ID : 19
Format : UTF-8
Codec ID : S_TEXT/UTF8
Codec ID/Info : UTF-8 Plain Text
Duration : 48 min 45 s
Bit rate : 70 b/s
Count of elements : 691
Stream size : 25.0 KiB (0%)
Title : Polski
Language : Polish
Default : No
Forced : No

Text #17
ID : 20
Format : UTF-8
Codec ID : S_TEXT/UTF8
Codec ID/Info : UTF-8 Plain Text
Duration : 48 min 45 s
Bit rate : 76 b/s
Count of elements : 702
Stream size : 27.4 KiB (0%)
Title : Português
Language : Portuguese
Default : No
Forced : No

Text #18
ID : 21
Format : UTF-8
Codec ID : S_TEXT/UTF8
Codec ID/Info : UTF-8 Plain Text
Duration : 48 min 45 s
Bit rate : 67 b/s
Count of elements : 669
Stream size : 24.1 KiB (0%)
Title : Português (Brasil)
Language : Portuguese
Default : No
Forced : No

Text #19
ID : 22
Format : UTF-8
Codec ID : S_TEXT/UTF8
Codec ID/Info : UTF-8 Plain Text
Duration : 48 min 45 s
Bit rate : 70 b/s
Count of elements : 676
Stream size : 25.3 KiB (0%)
Title : Română
Language : Romanian
Default : No
Forced : No

Text #20
ID : 23
Format : UTF-8
Codec ID : S_TEXT/UTF8
Codec ID/Info : UTF-8 Plain Text
Duration : 48 min 45 s
Bit rate : 68 b/s
Count of elements : 703
Stream size : 24.6 KiB (0%)
Title : Suomi
Language : Finnish
Default : No
Forced : No

Text #21
ID : 24
Format : UTF-8
Codec ID : S_TEXT/UTF8
Codec ID/Info : UTF-8 Plain Text
Duration : 48 min 45 s
Bit rate : 69 b/s
Count of elements : 680
Stream size : 24.8 KiB (0%)
Title : Svenska
Language : Swedish
Default : No
Forced : No

Text #22
ID : 25
Format : UTF-8
Codec ID : S_TEXT/UTF8
Codec ID/Info : UTF-8 Plain Text
Duration : 48 min 45 s
Bit rate : 68 b/s
Count of elements : 695
Stream size : 24.6 KiB (0%)
Title : Türkçe
Language : Turkish
Default : No
Forced : No





The Dropout S01E06


The Dropout S01E06


The Dropout S01E06


The Dropout S01E06


The Dropout S01E06

All episodes