Index
# A B C D E F G H I J K L M N O P Q R S T U V W Y Z
Tags
Language
Tags

Featured TV Shows


The Dropout S01E06

Posted By: Tavaz
2160p (4k UHD) / WEBRip IMDb
The Dropout S01E06

The Dropout S01E06
WEB-DL | MKV | 3840x2160 | English / Deutsch | H265 @ 15509 kbps | E-AC-3 @ 256 kbps | 49 min 0 s | 5.49 GiB
Subtitles: English, Deutsch
Genre: Drama


„The Dropout“ zeichnet die skandalträchtige Geschichte um die Unternehmerin Elizabeth Holmes und ihrer Firma nach. Holmes brach 2003 ihr Studium an der Stanford University ab („drop out“), um das Biotechnologie-Unternehmen Theranos zu gründen. Die Firma versprach, das Verfahren für Blutuntersuchungen unter Verwendung von Gentests zu revolutionieren. Im vergangenen Jahr wurden Holmes und ihr Geschäftsführer schließlich von einer Grand Jury des Betruges angeklagt. Einst wurde Holmes als eine Art Wunderkind gehandelt, nun drohen ihr bis zu 20 Jahre Gefängnis. Das Verfahren gegen sie beginnt voraussichtlich im Juli 2021.

the.dropout.s01e06.german.dubbed.dl.2160p.web.h265-rile.mkv (5.5 GB)



General
Unique ID : 233686145604864256301600070325790193466 (0xAFCE5085C05BA1A73B4B259FA18E373A)
Complete name : ./the.dropout.s01e06.german.dubbed.dl.2160p.web.h265-rile.mkv
Format : Matroska
Format version : Version 4 / Version 2
File size : 5.49 GiB
Duration : 49 min 0 s
Overall bit rate : 16.0 Mb/s
Encoded date : UTC 2022-04-19 12:04:06
Writing application : mkvmerge v66.0.0 ('Josie') 64-bit
Writing library : libebml v1.4.2 + libmatroska v1.6.4 / Lavf58.35.100

Video
ID : 1
Format : HEVC
Format/Info : High Efficiency Video Coding
Format profile : Main 10@L5.1@Main
Codec ID : V_MPEGH/ISO/HEVC
Duration : 49 min 0 s
Bit rate : 15.5 Mb/s
Width : 3 840 pixels
Height : 2 160 pixels
Display aspect ratio : 16:9
Frame rate mode : Constant
Frame rate : 23.976 (24000/1001) FPS
Color space : YUV
Chroma subsampling : 4:2:0
Bit depth : 10 bits
Bits/(Pixel*Frame) : 0.078
Stream size : 5.31 GiB (97%)
Default : Yes
Forced : No

Audio #1
ID : 2
Format : E-AC-3
Format/Info : Enhanced Audio Coding 3
Format settings, Endianness : Big
Codec ID : A_EAC3
Duration : 49 min 0 s
Bit rate mode : Constant
Bit rate : 256 kb/s
Channel(s) : 6 channels
Channel positions : Front: L C R, Side: L R, LFE
Sampling rate : 48.0 kHz
Frame rate : 187.500 FPS (256 SPF)
Compression mode : Lossy
Stream size : 89.7 MiB (2%)
Language : German
Service kind : Complete Main
Default : Yes
Forced : No

Audio #2
ID : 3
Format : E-AC-3
Format/Info : Enhanced Audio Coding 3
Format settings, Endianness : Big
Codec ID : A_EAC3
Duration : 49 min 0 s
Bit rate mode : Constant
Bit rate : 256 kb/s
Channel(s) : 6 channels
Channel positions : Front: L C R, Side: L R, LFE
Sampling rate : 48.0 kHz
Frame rate : 187.500 FPS (256 SPF)
Compression mode : Lossy
Stream size : 89.7 MiB (2%)
Language : English
Service kind : Complete Main
Default : No
Forced : No

Text #1
ID : 4
Format : UTF-8
Codec ID : S_TEXT/UTF8
Codec ID/Info : UTF-8 Plain Text
Duration : 48 min 43 s
Bit rate : 2 b/s
Count of elements : 32
Stream size : 826 Bytes (0%)
Title : German_Forced
Language : German
Default : Yes
Forced : Yes

Text #2
ID : 5
Format : UTF-8
Codec ID : S_TEXT/UTF8
Codec ID/Info : UTF-8 Plain Text
Duration : 48 min 45 s
Bit rate : 77 b/s
Count of elements : 705
Stream size : 27.6 KiB (0%)
Title : German
Language : German
Default : No
Forced : No

Text #3
ID : 6
Format : UTF-8
Codec ID : S_TEXT/UTF8
Codec ID/Info : UTF-8 Plain Text
Duration : 47 min 46 s
Bit rate : 82 b/s
Count of elements : 945
Stream size : 29.0 KiB (0%)
Title : English
Language : English
Default : No
Forced : No





The Dropout S01E06


The Dropout S01E06


The Dropout S01E06


The Dropout S01E06


The Dropout S01E06

All episodes