Index
# A B C D E F G H I J K L M N O P Q R S T U V W Y Z
Tags
Language
Tags

Featured TV Shows


The Dropout S01E06

Posted By: Tavaz
720p (HD) / WEBRip IMDb
The Dropout S01E06

The Dropout S01E06
WEB-DL | MKV | 1280x720 | English / Deutsch | H264 @ 2685 kbps | E-AC-3 @ 256 kbps | 48 min 57 s | 1.09 GiB
Subtitles: English, Deutsch
Genre: Drama


„The Dropout“ zeichnet die skandalträchtige Geschichte um die Unternehmerin Elizabeth Holmes und ihrer Firma nach. Holmes brach 2003 ihr Studium an der Stanford University ab („drop out“), um das Biotechnologie-Unternehmen Theranos zu gründen. Die Firma versprach, das Verfahren für Blutuntersuchungen unter Verwendung von Gentests zu revolutionieren. Im vergangenen Jahr wurden Holmes und ihr Geschäftsführer schließlich von einer Grand Jury des Betruges angeklagt. Einst wurde Holmes als eine Art Wunderkind gehandelt, nun drohen ihr bis zu 20 Jahre Gefängnis. Das Verfahren gegen sie beginnt voraussichtlich im Juli 2021.

the.dropout.s01e06.german.dl.720p.web.h264-wvf.mkv (1.1 GB)



General
Unique ID : 148198300155690065847370104858824691890 (0x6F7DF45368952A516CC1A6E8446050B2)
Complete name : ./the.dropout.s01e06.german.dl.720p.web.h264-wvf.mkv
Format : Matroska
Format version : Version 4 / Version 2
File size : 1.09 GiB
Duration : 48 min 57 s
Overall bit rate mode : Variable
Overall bit rate : 3 200 kb/s
Encoded date : UTC 2022-04-18 23:34:00
Writing application : mkvmerge v51.0.0 ('I Wish') 64-bit
Writing library : libebml v1.4.0 + libmatroska v1.6.2

Video
ID : 1
Format : AVC
Format/Info : Advanced Video Codec
Format profile : High@L3.1
Format settings : CABAC / 4 Ref Frames
Format settings, CABAC : Yes
Format settings, RefFrames : 4 frames
Codec ID : V_MPEG4/ISO/AVC
Duration : 48 min 57 s
Bit rate mode : Variable
Bit rate : 2 686 kb/s
Maximum bit rate : 6 375 kb/s
Width : 1 280 pixels
Height : 720 pixels
Display aspect ratio : 16:9
Frame rate mode : Constant
Frame rate : 23.976 (24000/1001) FPS
Color space : YUV
Chroma subsampling : 4:2:0
Bit depth : 8 bits
Scan type : Progressive
Bits/(Pixel*Frame) : 0.122
Stream size : 941 MiB (84%)
Default : Yes
Forced : No
Color range : Limited
Color primaries : BT.709
Transfer characteristics : BT.709
Matrix coefficients : BT.709

Audio #1
ID : 2
Format : E-AC-3
Format/Info : Enhanced Audio Coding 3
Format settings, Endianness : Big
Codec ID : A_EAC3
Duration : 48 min 57 s
Bit rate mode : Constant
Bit rate : 256 kb/s
Channel(s) : 6 channels
Channel positions : Front: L C R, Side: L R, LFE
Sampling rate : 48.0 kHz
Frame rate : 187.500 FPS (256 SPF)
Compression mode : Lossy
Stream size : 89.7 MiB (8%)
Language : German
Service kind : Complete Main
Default : Yes
Forced : No

Audio #2
ID : 3
Format : E-AC-3
Format/Info : Enhanced Audio Coding 3
Format settings, Endianness : Big
Codec ID : A_EAC3
Duration : 48 min 57 s
Bit rate mode : Constant
Bit rate : 256 kb/s
Channel(s) : 6 channels
Channel positions : Front: L C R, Side: L R, LFE
Sampling rate : 48.0 kHz
Frame rate : 187.500 FPS (256 SPF)
Compression mode : Lossy
Stream size : 89.7 MiB (8%)
Language : English
Service kind : Complete Main
Default : No
Forced : No

Text #1
ID : 4
Format : UTF-8
Codec ID : S_TEXT/UTF8
Codec ID/Info : UTF-8 Plain Text
Duration : 48 min 43 s
Bit rate : 2 b/s
Count of elements : 32
Stream size : 826 Bytes (0%)
Title : de_Forced
Language : German
Default : Yes
Forced : Yes

Text #2
ID : 5
Format : UTF-8
Codec ID : S_TEXT/UTF8
Codec ID/Info : UTF-8 Plain Text
Duration : 48 min 45 s
Bit rate : 77 b/s
Count of elements : 705
Stream size : 27.6 KiB (0%)
Title : de_Full
Language : German
Default : No
Forced : No

Text #3
ID : 6
Format : UTF-8
Codec ID : S_TEXT/UTF8
Codec ID/Info : UTF-8 Plain Text
Duration : 48 min 45 s
Bit rate : 79 b/s
Count of elements : 826
Stream size : 28.5 KiB (0%)
Title : en_Full
Language : English
Default : No
Forced : No





The Dropout S01E06


The Dropout S01E06


The Dropout S01E06


The Dropout S01E06


The Dropout S01E06

All episodes