Featured TV Shows


The Loudest Voice S01E01

Posted By: Tavaz
1080p (FullHD) / WEB-DL IMDb
The Loudest Voice S01E01

The Loudest Voice S01E01
WEB-DL | MKV | 1920x1080 | English | H264 @ 7999 kbps | AC-3 @ 5.1 640 kbps | 54 min 17 s | 3.28 GiB
Subtitles: English
Genre: Drama

The rise and fall of Fox News founder Roger Ailes, focusing primarily on the past decade in which Ailes arguably became the Republican Party’s de facto leader, while flashing back to defining events in his life.

23718298ea3244fdb3eb769f396c1d31.mkv (3.3 GB)



General
Unique ID : 84951595791201729003050596750004216315 (0x3FE9150C17D37433651F3BA8CB9661FB)
Complete name : ./23718298ea3244fdb3eb769f396c1d31.mkv
Format : Matroska
Format version : Version 4 / Version 2
File size : 3.28 GiB
Duration : 54 min 17 s
Overall bit rate : 8 642 kb/s
Encoded date : UTC 2019-06-30 06:57:23
Writing application : mkvmerge v35.0.0 ('All The Love In The World') 64-bit
Writing library : libebml v1.3.9 + libmatroska v1.5.2

Video
ID : 1
Format : AVC
Format/Info : Advanced Video Codec
Format profile : High@L4
Format settings : CABAC / 4 Ref Frames
Format settings, CABAC : Yes
Format settings, RefFrames : 4 frames
Codec ID : V_MPEG4/ISO/AVC
Duration : 54 min 17 s
Bit rate mode : Constant
Bit rate : 8 000 kb/s
Nominal bit rate : 10 000 kb/s
Width : 1 920 pixels
Height : 1 080 pixels
Display aspect ratio : 16:9
Frame rate mode : Constant
Frame rate : 23.976 (24000/1001) FPS
Color space : YUV
Chroma subsampling : 4:2:0
Bit depth : 8 bits
Scan type : Progressive
Bits/(Pixel*Frame) : 0.161
Stream size : 3.03 GiB (93%)
Language : English
Default : Yes
Forced : No
Color range : Limited
Color primaries : BT.709
Transfer characteristics : BT.709
Matrix coefficients : BT.709

Audio
ID : 2
Format : E-AC-3
Format/Info : Enhanced Audio Coding 3
Format settings, Endianness : Big
Codec ID : A_EAC3
Duration : 54 min 17 s
Bit rate mode : Constant
Bit rate : 640 kb/s
Channel(s) : 6 channels
Channel positions : Front: L C R, Side: L R, LFE
Sampling rate : 48.0 kHz
Frame rate : 187.500 FPS (256 SPF)
Compression mode : Lossy
Delay relative to video : 18 ms
Stream size : 249 MiB (7%)
Language : English
Service kind : Complete Main
Default : Yes
Forced : No

Text
ID : 3
Format : UTF-8
Codec ID : S_TEXT/UTF8
Codec ID/Info : UTF-8 Plain Text
Duration : 52 min 45 s
Bit rate : 81 b/s
Count of elements : 1045
Stream size : 31.4 KiB (0%)
Title : SDH
Language : English
Default : No
Forced : No

Menu
00:00:00.000 : en:Studio Logo
00:00:04.970 : en:Title Sequence
00:00:19.970 : en:Remaining Employable
00:05:11.970 : en:Roger leaves his old post
00:12:05.970 : en:12 months to launch
00:18:33.970 : en:Roger starts recruiting
00:24:03.970 : en:11 months to launch
00:26:02.970 : en:6 months to launch
00:30:11.970 : en:4 months to launch
00:35:22.970 : en:3 months to launch
00:39:00.970 : en:2 weeks to launch
00:49:25.970 : en:Launch day
00:52:05.970 : en:End Credits
00:52:56.970 : en:Next Episode





The Loudest Voice S01E01


The Loudest Voice S01E01


The Loudest Voice S01E01


The Loudest Voice S01E01


The Loudest Voice S01E01

All episodes