Featured TV Shows


The Loudest Voice S01E03

Posted By: Tavaz
1080p (FullHD) / WEBRip IMDb
The Loudest Voice S01E03

The Loudest Voice S01E03
WEBRip | MKV | 1920x1080 | English | H264 @ 8620 kbps | E-AC-3 @ 640 kbps | 50 min 31 s | 3.27 GiB
Subtitles: English
Genre: Drama


The rise and fall of Fox News founder Roger Ailes, focusing primarily on the past decade in which Ailes arguably became the Republican Party’s de facto leader, while flashing back to defining events in his life.

the.loudest.voice.s01e03.internal.1080p.web.h264-memento.mkv (3.3 GB)



General
Unique ID : 164664450038363839037598873371950522427 (0x7BE13831D6F938C76472678EB361203B)
Complete name : ./the.loudest.voice.s01e03.internal.1080p.web.h264-memento.mkv
Format : Matroska
Format version : Version 4 / Version 2
File size : 3.27 GiB
Duration : 50 min 31 s
Overall bit rate : 9 263 kb/s
Encoded date : UTC 2019-07-14 04:12:07
Writing application : mkvmerge v35.0.0 ('All The Love In The World') 64-bit
Writing library : libebml v1.3.9 + libmatroska v1.5.2

Video
ID : 1
Format : AVC
Format/Info : Advanced Video Codec
Format profile : High@L4
Format settings : CABAC / 4 Ref Frames
Format settings, CABAC : Yes
Format settings, RefFrames : 4 frames
Codec ID : V_MPEG4/ISO/AVC
Duration : 50 min 31 s
Bit rate mode : Constant
Bit rate : 8 621 kb/s
Nominal bit rate : 10 000 kb/s
Width : 1 920 pixels
Height : 1 080 pixels
Display aspect ratio : 16:9
Frame rate mode : Constant
Frame rate : 23.976 (24000/1001) FPS
Color space : YUV
Chroma subsampling : 4:2:0
Bit depth : 8 bits
Scan type : Progressive
Bits/(Pixel*Frame) : 0.173
Stream size : 3.04 GiB (93%)
Language : English
Default : Yes
Forced : No
Color range : Limited
Color primaries : BT.709
Transfer characteristics : BT.709
Matrix coefficients : BT.709

Audio
ID : 2
Format : E-AC-3
Format/Info : Enhanced Audio Coding 3
Format settings, Endianness : Big
Codec ID : A_EAC3
Duration : 50 min 31 s
Bit rate mode : Constant
Bit rate : 640 kb/s
Channel(s) : 6 channels
Channel positions : Front: L C R, Side: L R, LFE
Sampling rate : 48.0 kHz
Frame rate : 187.500 FPS (256 SPF)
Compression mode : Lossy
Delay relative to video : 18 ms
Stream size : 231 MiB (7%)
Language : English
Service kind : Complete Main
Default : Yes
Forced : No

Text
ID : 3
Format : UTF-8
Codec ID : S_TEXT/UTF8
Codec ID/Info : UTF-8 Plain Text
Duration : 49 min 17 s
Bit rate : 85 b/s
Count of elements : 1061
Stream size : 30.7 KiB (0%)
Language : English
Default : No
Forced : No





The Loudest Voice S01E03


The Loudest Voice S01E03


The Loudest Voice S01E03


The Loudest Voice S01E03


The Loudest Voice S01E03

All episodes